Astrud Gilberto with Stanley Turrentine - Gilberto with Turrentine (1971/2013) [DSD64 + Hi-Res FLAC]

Posted By: HDV
Astrud Gilberto with Stanley Turrentine - Gilberto with Turrentine (1971/2013) [DSD64 + Hi-Res FLAC]

Astrud Gilberto with Stanley Turrentine - Gilberto with Turrentine (1971/2013)
DSD64 (.dsf) 1 bit/2,8 MHz | Time - 36:52 minutes | 1,04 GB
FLAC (tracks) 24-bit/88,2 kHz | Time - 36:52 minutes | 768 MB
Studio Master, Official Digital Download | Artwork: Front cover

Gilberto with Turrentine is an album by Brazilian samba and bossa nova singer Astrud Gilberto and American saxophonist Stanley Turrentine featuring performances recorded in 1971 released on the CTI label. The Allmusic review calls it a "set that had some mildly entertaining moments".

Incredible 70s work from the lovely Astrud Gilberto – a rare effort for the CTI label that has her teaming up with arranger Eumir Deodato and saxophonist Stanley Turrentine – all in a groove that's totally different than most of her earlier work! Astrud's breathy vocals are still wonderfully intact – but they're given a more spacious approach in the arrangements – strings mixes with rolling basslines, soaring keyboards, and stone cold tenor from Stanley – in a groove that's simply wonderful, and which takes off in a whole new direction than before! Other players include Airto, Sivuca, Hubert Laws, and Dom Um Romao – and tracks include classic versions of "Ponteio", "Vera Cruz", and "Zazueira" that are all some of the most grooving takes on the tunes ever – plus "Historia De Amor", "Where There's A Heartache", "Brazilian Tapestry", and "Wanting Things".

Tracklist:

01 - Wanting Things
02 - Brazilian Tapestry
03 - To a Flame
04 - Solo el Fin (For All We Know)
05 - Zazueira
06 - Ponteio
07 - Travelling Light
08 - Vera Cruz
09 - Historia de Amor (Love Story)
10 - Where There's a Heartache (There Must Be a Heart)

Produced by Creed Taylor. Engineered by Rudy Van Gelder.
Recorded at Van Gelder Studio in Englewood Cliffs, New Jersey on January 13 (tracks 9-10), February 1 (track 4), February 4 (tracks 1, 3 & 7), March 19 (tracks 2 & 5), and April 6 (track 6 & 8), 1971.

Musicians:
Astrud Gilberto - vocals
Stanley Turrentine - tenor saxophone (tracks 2, 5, 6 & 8)
Eumir Deodato - electric piano, arranger, conductor
Emanuel Green, George Marge, Hubert Laws, Romeo Penque - flute (tracks 2, 5, 7, 8 & 10)
Gene Bertoncini (tracks 1, 3, 4, 7, 10), Sivouca (tracks 2, 5, 6, 8) - guitar
Sam Brown (tracks 1, 2, 5, 6, 8), Bob Mann (tracks 3, 4, 7, 9) - electric guitar
Toots Thielemans - harmonica (tracks 6)
Ron Carter (tracks 1-3, 5-8), Russell George (tracks 4 & 9-10) - bass
Dennis Seiwell (tracks 4, 9, 10), Dom Um Romão (tracks 2 & 5), João Palma (tracks 1, 3, 7) - drums
Airto Moreira - percussion (tracks 2 & 5))
Emanuel Green, Gene Orloff, Harry Katzman, Joe Malin, Julie Held, Paul Gershman - violin (tracks 1-5 & 7-10)
Harold Coletta - viola (tracks 1, 2, 4, 7-10)
George Ricci - cello (tracks 1-5 & 7-10)

Analyzed: Astrud Gilberto with Stanley Turrentine / Gilberto with Turrentine
––––––––––––––––––––––––––––––––––––––––

DR Peak RMS Duration Track
––––––––––––––––––––––––––––––––––––––––
DR10 -7.49 dB -21.31 dB 2:43 01-Wanting Things
DR11 -6.20 dB -20.58 dB 5:18 02-Brazilian Tapestry
DR10 -5.40 dB -19.27 dB 3:22 03-To a Flame
DR10 -7.61 dB -20.39 dB 3:20 04-Solo el Fin (For All We Know)
DR11 -5.12 dB -19.29 dB 3:49 05-Zazueira
DR11 -5.60 dB -20.23 dB 3:44 06-Ponteio
DR10 -5.94 dB -20.46 dB 2:32 07-Travelling Light
DR12 -5.87 dB -22.04 dB 5:13 08-Vera Cruz
DR11 -7.13 dB -22.04 dB 3:36 09-Historia de Amor (Love Story)
DR10 -9.76 dB -22.71 dB 3:14 10-Where There's a Heartache (There Must Be a Heart)
––––––––––––––––––––––––––––––––––––––––

Number of tracks: 10
Official DR value: DR11

Samplerate: 2822400 Hz / PCM Samplerate: 88200 Hz
Channels: 2
Bits per sample: 1
Bitrate: 5645 kbps
Codec: DSD64
================================================================================


Analyzed: Astrud Gilberto with Stanley Turrentine / Gilberto with Turrentine
––––––––––––––––––––––––––––––––––––––––

DR Peak RMS Duration Track
––––––––––––––––––––––––––––––––––––––––
DR10 -1.49 dB -15.31 dB 2:43 01-Wanting Things
DR11 -0.20 dB -14.58 dB 5:18 02-Brazilian Tapestry
DR10 -0.40 dB -14.27 dB 3:22 03-To a Flame
DR10 -1.61 dB -14.39 dB 3:20 04-Solo el Fin (For All We Know)
DR11 -0.12 dB -14.29 dB 3:49 05-Zazueira
DR11 -0.60 dB -15.23 dB 3:44 06-Ponteio
DR10 -0.94 dB -15.46 dB 2:32 07-Travelling Light
DR12 -0.87 dB -17.04 dB 5:13 08-Vera Cruz
DR11 -1.13 dB -16.04 dB 3:36 09-Historia de Amor (Love Story)
DR10 -3.76 dB -16.71 dB 3:14 10-Where There's a Heartache (There Must Be a Heart)
––––––––––––––––––––––––––––––––––––––––

Number of tracks: 10
Official DR value: DR11

Samplerate: 88200 Hz
Channels: 2
Bits per sample: 24
Bitrate: 2708 kbps
Codec: FLAC
================================================================================


Thanks to the Original customer!

Some more of 'Astrud Gilberto' in Hi-Res