Ayako Hosokawa & Shota Osabe Jazz Ensemble - I Touch The Stars (2001) [Reissue 2003] PS3 ISO + Hi-Res FLAC

Posted By: HDAtall
Ayako Hosokawa & Shota Osabe Jazz Ensemble - I Touch The Stars (2001) [Reissue 2003] PS3 ISO + Hi-Res FLAC

Ayako Hosokawa & Shota Osabe Jazz Ensemble - I Touch The Stars (2001) [Reissue 2003]
PS3 Rip | SACD ISO | DSD64 2.0 > 1-bit/2.8224 MHz | 47:18 minutes | Covers included | 1,48 GB
or FLAC(converted with foobar2000 to tracks) 24bit/88,2 kHz | Covers included | 975 MB

At the age of 14, she was already performing in the American military clubs in Japan, picking up the English language by singing international pop songs of that time. Nowadays, she represents feeling and soul within her songs, no matter whether she sings in English or Japanese. After her marriage, she moved to the United States and was discovered and sponsored by Earl "Fatha" Hines. She found her enthusiastic fans touring San Francisco, Las Vegas, Montreal and lots of places in California, performing in the clubs, local radio stations or on TV. In the ‘80s, she started a roving life between the United States and Japan. Due to her recordings for TBM and the performances for the radio stations and on TV, she became one of the best-known pop and jazz singers throughout her country.

Tracklist:

01. Darling, Je Vous Aime Beaucoup / La Vie En Rose
02. Stranger In Paradise
03. That Sunday (That Summer)
04. Tonight We Love
05. Straighten Up And Fly Right
06. Old Cape Cod
07. I Concentrate On You
08. Almost Like Being In Love
09. Someone To Watch Over Me
10. On The Sunny Side Of The Street
11. You Took Advantage Of Me
12. We're All Alone
13. 'Til Then

foobar2000 1.3.10 / Dynamic Range Meter 1.1.1


––––––––––––––––––––––––––––––––––––––––
Analyzed: Ayaka Hosokawa / I Touch The Stars
––––––––––––––––––––––––––––––––––––––––

DR Peak RMS Duration Track
––––––––––––––––––––––––––––––––––––––––
DR11 -4.82 dB -19.44 dB 4:36 01-Darling, Je Vous Aime Beaucoup / La Vie En Rose
DR10 -6.17 dB -18.66 dB 3:42 02-Stranger In Paradise
DR11 -6.93 dB -20.53 dB 3:39 03-That Sunday (That Summer)
DR10 -6.54 dB -17.93 dB 3:59 04-Tonight We Love
DR13 -5.28 dB -19.99 dB 2:24 05-Straighten Up And Fly Right
DR13 -5.28 dB -20.11 dB 3:58 06-Old Cape Cod
DR11 -7.44 dB -20.82 dB 4:32 07-I Concentrate On You
DR10 -6.80 dB -21.27 dB 2:24 08-Almost Like Being In Love
DR10 -5.94 dB -18.89 dB 3:19 09-Someone To Watch Over Me
DR11 -7.18 dB -21.31 dB 2:33 10-On The Sunny Side Of The Street
DR11 -6.09 dB -19.78 dB 3:16 11-You Took Advantage Of Me
DR11 -6.48 dB -20.51 dB 4:48 12-We're All Alone
DR11 -8.62 dB -21.79 dB 4:07 13-'Til Then
––––––––––––––––––––––––––––––––––––––––

Number of tracks: 13
Official DR value: DR11

Samplerate: 88200 Hz
Channels: 2
Bits per sample: 24
Bitrate: 5645 kbps
Codec: DSD64


Uncompressed SACD ISO size > 1,89 GB