Subcategories

Barry Manilow - A Christmas Gift Of Love (2002) [2.0 & 5.1] PS3 ISO + Hi-Res FLAC

Posted By: HDAtall
Barry Manilow - A Christmas Gift Of Love (2002) [2.0 & 5.1] PS3 ISO + Hi-Res FLAC

Barry Manilow - A Christmas Gift Of Love (2002) [2.0 & 5.1]
PS3 Rip | SACD ISO | DSD64 2.0 & DST64 5.1 > 1-bit/2.8224 MHz | 30:32 minutess | Scans included | 2,41 GB
or FLAC 2.0 Stereo (converted with foobar2000 to tracks) 24bit/88,2 kHz | Scans included | 822 MB

Barry Manilow's second seasonal collection, following 1990's Because It's Christmas, was released on Columbia Records, but that label berth appears to be a one-off for the singer, who followed his long tenure at Arista by signing to the jazz independent Concord for his last album, 2001's Here at the Mayflower. Maybe Columbia offered a bigger budget, since Manilow is awash in strings on a set of holiday standards. Those strings are arranged festively, and Manilow is in an appropriately festive mood, really throwing himself into the proceedings; it's his enthusiasm that makes this Christmas album a winner. There are songs actually written as Christmas carols, such as "Santa Claus Is Coming to Town," but Manilow also expands the usual repertoire to take in a number of tunes that have become associated with the holiday season over the years, even if they were not intended to be originally, notably Rodgers & Hammerstein's "My Favorite Things" from The Sound of Music and Joni Mitchell's melancholy "River" from her Blue album, which is certainly set at Christmas time even if it doesn't share the usual holiday sentiments. Inevitably, Manilow ends with his own new Christmas original, "A Gift of Love," which is a good song even if it isn't likely to join the ranks of the perennial copyrights. This is an enjoyable Christmas album in a traditional pop style likely to please both Manilow fans and others.

Tracklist:

01. Winter Wonderland
02. Happy Holiday/White Christmas
03. Santa Claus Is Coming To Town
04. (There's No Place Like) Home For The Holidays
05. I'll Be Home For Christmas
06. My Favorite Things
07. The Christmas Waltz
08. I've Got My Love To Keep Me Warm
09. River
10. What Are You Doing New Year's Eve?
11. A Gift Of Love

foobar2000 1.2.9 / Dynamic Range Meter 1.1.1

––––––––––––––––––––––––––––––––––––––––
Analyzed: BARRY MANILOW / A CHRISTMAS GIFT OF LOVE
––––––––––––––––––––––––––––––––––––––––

DR Peak RMS Duration Track
––––––––––––––––––––––––––––––––––––––––
DR11 -2.19 dB -21.09 dB 1:44 01-Winter Wonderland
DR10 0.00 dB -17.03 dB 2:46 02-Happy Holiday/White Christmas
DR11 0.00 dB -17.70 dB 1:54 03-Santa Claus Is Coming To Town
DR11 0.00 dB -17.20 dB 2:26 04-(There's No Place Like) Home For The Holidays
DR12 -0.01 dB -19.11 dB 3:20 05-I'll Be Home For Christmas
DR11 0.00 dB -17.91 dB 2:27 06-My Favorite Things
DR12 -0.02 dB -18.00 dB 2:56 07-The Christmas Waltz
DR11 0.00 dB -18.22 dB 3:00 08-I've Got My Love To Keep Me Warm
DR11 -1.39 dB -21.36 dB 3:45 09-River
DR11 0.00 dB -18.59 dB 3:48 10-What Are You Doing New Year's Eve?
DR10 0.00 dB -19.80 dB 2:28 11-A Gift Of Love
––––––––––––––––––––––––––––––––––––––––

Number of tracks: 11
Official DR value: DR11

Samplerate: 2822400 Hz / PCM Samplerate: 176400 Hz
Channels: 6
Bits per sample: 24
Bitrate: 16934 kbps
Codec: DST64
================================================================================

––––––––––––––––––––––––––––––––––––––––
Analyzed: BARRY MANILOW / A CHRISTMAS GIFT OF LOVE
––––––––––––––––––––––––––––––––––––––––

DR Peak RMS Duration Track
––––––––––––––––––––––––––––––––––––––––
DR13 -1.06 dB -17.04 dB 1:44 01-Winter Wonderland
DR12 0.00 dB -14.26 dB 2:45 02-Happy Holiday/White Christmas
DR12 0.00 dB -13.55 dB 1:53 03-Santa Claus Is Coming To Town
DR12 0.00 dB -13.68 dB 2:28 04-(There's No Place Like) Home For The Holidays
DR11 0.00 dB -14.20 dB 3:21 05-I'll Be Home For Christmas
DR12 0.00 dB -14.25 dB 2:26 06-My Favorite Things
DR11 0.00 dB -13.72 dB 2:56 07-The Christmas Waltz
DR12 0.00 dB -14.06 dB 2:59 08-I've Got My Love To Keep Me Warm
DR11 0.00 dB -13.83 dB 3:45 09-River
DR12 0.00 dB -14.77 dB 3:48 10-What Are You Doing New Year's Eve?
DR12 0.00 dB -15.57 dB 2:26 11-A Gift Of Love
––––––––––––––––––––––––––––––––––––––––

Number of tracks: 11
Official DR value: DR12

Samplerate: 2822400 Hz / PCM Samplerate: 176400 Hz
Channels: 2
Bits per sample: 24
Bitrate: 5645 kbps
Codec: DSD64


Uncompressed SACD ISO size > 2,48 GB

Barry Manilow - Ultimate Manilow (2002) [Reissue 2015]
>
SACD ISO 1
SACD ISO 2
SACD ISO 3
SACD ISO 4

FLAC 1 (Stereo)
FLAC 2 (Stereo)
>