Subcategories

Barry Manilow - My Dream Duets (2014) [Official Digital Download 24-bit/96kHz]

Posted By: HDV
Barry Manilow - My Dream Duets (2014) [Official Digital Download 24-bit/96kHz]

Barry Manilow - My Dream Duets (2014)
FLAC (tracks) 24-bit/96 kHz | Time - 33:36 minutes | 840 MB
Studio Master, Official Digital Download | Artwork: Front cover

Modern technology has given Barry Manilow the opportunity to record his dream duets with his own musical heroes on this album. From cherished idols like Judy Garland and Louis Armstrong to contemporary icons like Whitney Houston and John Denver, they have all joined Manilow in his virtual recording studio.The original vocal tracks for each guest artist were extracted from their original source recordings, allowing Manilow to reorchestrate the arrangements, record new musical tracks and then transport the guest vocals into vibrant new settings. In this way, he not only pays tribute to his duet partners but he also brings them into the modern era.

At 71 years old, Barry Manilow has reached the age when he can do anything he pleases, and what pleases him is singing along with old records by dead singers. That's all My Dream Duets is: Manilow brushing off his old cabaret routine so it can spruce up vintage records by Jimmy Durante and Judy Garland. He's not the only new element on these electronically rejiggered duets – instrumentation, usually synthetic, sometimes as incessant as the drum loop that runs underneath "The Candyman," has been added – but he's the notable addition, crooning full verses in addition to sliding in some corny asides. For all his showboating, he doesn't do much to distract from his idols. Time and time again, the singer who stands out on My Dream Duets is the original vocalist, the one who cut the track originally and stamped it indelibly with his or her own personality. Manilow recedes out of deference but also practicality: he's not duetting with a living singer; he's singing over an existing track and tailoring his performance to suit established contours. Consequently, there's not much dynamism here, but it's also not stiff because Manilow is so over the top. Perhaps that's Barry's natural response because there's nothing left for him to do but ham it up on the margins but, ultimately, that means My Dream Duets isn't much more than an exceedingly odd curiosity.

Tracklist:

01 - Barry Manilow & Jimmy Durante - The Song's Gotta Come From The Heart
02 - Barry Manilow & Frankie Lymon - Goody Goody
03 - Barry Manilow & Mama Cass - Dream A Little Dream Of Me
04 - Barry Manilow & Whitney Houston - I Believe In You And Me
05 - Barry Manilow & John Denver - Sunshine On My Shoulders
06 - Barry Manilow & Judy Garland - Zing! Went The Strings Of My Heart
07 - Barry Manilow & Andy Williams - Moon River
08 - Barry Manilow & Dusty Springfield - The Look Of Love
09 - Barry Manilow & Sammy Davis, Jr. - The Candy Man
10 - Barry Manilow & Marilyn Monroe - I Wanna Be Loved By You
11 - Barry Manilow & Louis Armstrong - What A Wonderful World / What A Wonderful Life

Analyzed: Barry Manilow & Andy Williams / My Dream Duets (1)
Barry Manilow & Dusty Springfield / My Dream Duets (2)
Barry Manilow & Frankie Lymon / My Dream Duets (3)
Barry Manilow & Jimmy Durante / My Dream Duets (4)
Barry Manilow & John Denver / My Dream Duets (5)
Barry Manilow & Judy Garland / My Dream Duets (6)
Barry Manilow & Louis Armstrong / My Dream Duets (7)
Barry Manilow & Mama Cass / My Dream Duets (8)
Barry Manilow & Marilyn Monroe / My Dream Duets (9)
Barry Manilow & Sammy Davis, Jr. / My Dream Duets (10)
Barry Manilow & Whitney Houston / My Dream Duets (11)
––––––––––––––––––––––––––––––––––––––––

DR Peak RMS Duration Track
––––––––––––––––––––––––––––––––––––––––
DR12 -0.01 dB -14.55 dB 3:36 07-Moon River
DR13 -0.79 dB -16.48 dB 4:13 08-The Look Of Love
DR12 0.00 dB -14.01 dB 2:14 02-Goody Goody
DR13 0.00 dB -16.71 dB 2:08 01-The Song's Gotta Come From The Heart
DR12 -1.43 dB -16.69 dB 4:37 05-Sunshine On My Shoulders
DR13 0.00 dB -15.11 dB 3:21 06-Zing! Went The Strings Of My Heart
DR12 0.00 dB -14.23 dB 4:00 11-What A Wonderful World / What A Wonderful Life
DR12 0.00 dB -14.61 dB 3:10 03-Dream A Little Dream Of Me
DR14 0.00 dB -15.96 dB 2:15 10-I Wanna Be Loved By You
DR12 0.00 dB -13.91 dB 3:06 09-The Candy Man
DR10 0.00 dB -13.94 dB 3:54 04-I Believe In You And Me
––––––––––––––––––––––––––––––––––––––––

Number of tracks: 11
Official DR value: DR12

Samplerate: 96000 Hz
Channels: 2
Bits per sample: 24
Bitrate: 3213 kbps
Codec: FLAC
================================================================================


Thanks to the Original customer!