J.S. Bach - St. Matthew Passion [excerpts] (Masaaki Suzuki) [2004] (PS3 SACD rip)

Posted By: evaristegalois
J.S. Bach - St. Matthew Passion [excerpts] (Masaaki Suzuki) [2004] (PS3 SACD rip)

J.S. Bach - St. Matthew Passion [excerpts] (Masaaki Suzuki) [2004] (PS3 SACD rip)
SACD ISO image: | Scans PDF (800 dpi): 26.5 MB | 5% Recovery | DST 1bit-2822,4kHz 2.0, 5.0
Classical | Label: BIS Records | Catalog Number: BIS-SACD-1500 | Direction: Masaaki Suzuki, Orchestra: Bach Collegium Japan

The St Matthew Passion, (also frequently St Matthew's Passion) BWV 244, (German: Matthäus-Passion), is a sacred oratorio from the Passions written by Johann Sebastian Bach in 1727 for solo voices, double choir and double orchestra, with libretto by Picander (Christian Friedrich Henrici). It sets chapters 26 and 27 of the Gospel of Matthew to music, with interspersed chorales and arias. It is widely regarded as one of the masterpieces of classical sacred music. The original Latin title Passio Domini Nostri J.C. Secundum Evangelistam Matthaeum translates to "The Passion of our Lord J[esus] C[hrist] according to the Evangelist Matthew." It is also rendered in English as St. Matthew Passion and in German as Matthäuspassion.

Although Bach wrote four (or five) settings of the Passions only two have survived; the other is the St John Passion. The St Matthew Passion was probably first performed on Good Friday (11 April) 1727[1] in the Thomaskirche in Leipzig, where Bach was the Kantor of the School and Directoris Chori musici of Leipzig. He revised it by 1736, performing it again on 30 March 1736, this time including two organs in the instrumentation. He further revised and performed it again on 24 March 1742. Possibly due to the second organ being under repair, he switched the continuo instrument to harpsichord in Coro II, reinforced the continuo group in Coro II with a viola da gamba, and inserted a ripieno soprano in both movements 1 and 29. There is evidence of a further revision in 1743-1746, when the score as we know it originated, but no performance.


Track listing


PART ONE


1. 1. Kommt ihr Töchter (chorus) 8:01
2. 8. Blute nur (aria) 4:44
3. 18. Da kam Jesus (recitative) 1:52
4. 20. Ich will bei meinem Jesu wachen (aria) 4:55
5. 26. Und er kam und fand sie (recitative) 2:31
6. 27A. So ist mein Jesus (aria) - 4:55
B. Sind Blitze, sind Donner (chorus)
7. 29. O Mensch, bewein dein Sünde gross (chorale) 5:55


PART TWO

8. 30. Ach! nun ist mein Jesus hin! (aria) 3:37
9. 36A. Und der Hohepriester antwortete (recitative) 2:02
B. Er ist des Todes schuidig! (chorus)
C. Da speieten sie aus (recitative)
D. Weissage uns, Christe (chorus)



10. 39. Erbarme dich (aria) 6:08
11. 45A. Aber die Hohenpriester (recitative) 1:02
B. Laß ihn kreuzigen! (chorus)

12. 46. Wie wunderbarlich ist doch diese Strafe! (chorale) 0:38
13. 49. Aus Liebe, aus Liebe (aria) 5:23
14. 50A. Sie schrieen aber noch mehr (recitative) 1:48
B. Laß ihn kreuzigen! (chorus)
C. Da aber Pilatus sahe (recitative)
D. Sein Blut komme über uns (chorus)
E. Da gab er ihnen Barrabam los (recitative)


15. 52. Können Tränen meiner Wangen (aria) 1:17
16. 53A. Da nahmen die Kriegshnechte (recitative) 1:11
B. Gegrüßet seist du, Jüdenkönig! (chorus)
C. Und speieten ihn an (recitative)

17. 54. O Haupt voll Blut und Wunden (chorale) 1:57
18. 58A. Und oben zu seinen Häupten hefteten (recitative) (part) 2:10
B. Der du den Tempel Gottes zerbrichst (chorus)
C. Desgleichen auch die Hohenpriester (recitative)
D. Andern hat er geholfen (chorus)

19. 60. Sehet, Jesus hat die Hand (aria) 2:58
20. 61A. Und von der sechsten Stunde an (recitative) 2:31
B. Der rufet dem Elias! (chorus)
C. Un bald lief einer unter ihnen (recitative)
D. Halt! laß sehen (chorus)
E. Aber Jesus schriee (recitative)


21. 62. Wenn ich einmal soll scheiden (chorale) 1:25
22. 63A. Und siehe da (recitative) 1:34
B. Wahrlich, dieser ist Gottes Sohn gewesen (chorus)


23. 67. Nun ist der Herr zu Ruh gebracht (recitative) 1:50
24. 68. Wir setzen uns mit Tränen nieder (chorus) 5:27



foobar2000 1.1.7 / Dynamic Range Meter 1.1.1
log date: 2012-03-11 01:02:06

––––––––––––––––––––––––––––––––––––––––
Analyzed: BIS Records AB / Bach - St. Matthew Passion
––––––––––––––––––––––––––––––––––––––––

DR Peak RMS Duration Track
––––––––––––––––––––––––––––––––––––––––
DR13 -6.19 dB -23.52 dB 8:07 01-St. Matthew Passion: 1. Kommt, ihr Töchter
DR14 -8.84 dB -30.22 dB 4:48 02-8. Blute nur
DR13 -14.02 dB -36.52 dB 1:56 03-18. Da kam Jesus
DR14 -8.21 dB -29.91 dB 4:56 04-20. Ich will bei meinem Jesu
DR16 -11.32 dB -33.40 dB 2:31 05-26. Und er kam
DR14 -6.16 dB -26.11 dB 4:54 06-27. So ist mein Jesus
DR14 -6.15 dB -25.01 dB 5:59 07-29. O Mensch
DR15 -9.77 dB -30.42 dB 3:39 08-30. Ach!
DR13 -6.18 dB -26.16 dB 2:06 09-36. Und der Hohepriester
DR16 -10.18 dB -32.27 dB 6:12 10-39. Erbarme dich
DR12 -7.12 dB -25.09 dB 1:03 11-45. Aber die Hohenpriester
DR11 -7.76 dB -25.08 dB 0:41 12-46. Wie wunderbarlich
DR14 -14.85 dB -35.13 dB 5:24 13-49. Aus Liebe
DR12 -6.17 dB -22.39 dB 1:51 14-50. Sie schrieen aber
DR15 -10.59 dB -32.55 dB 5:42 15-52. Können Tränen
DR13 -6.21 dB -27.63 dB 1:13 16-53. Da nahmen die Kriegsknechte
DR13 -6.56 dB -25.98 dB 1:59 17-54. O Haupt voll Blut und Wunden
DR13 -6.21 dB -24.94 dB 2:13 18-58. Und oben zu seinen Häupten
DR13 -15.06 dB -32.75 dB 3:00 19-60. Sehet
DR16 -7.24 dB -31.49 dB 2:33 20-61. Und von der sechsten Stunde
DR11 -16.83 dB -31.62 dB 1:26 21-62. Wenn ich einmal
DR13 -7.28 dB -27.94 dB 1:37 22-63. Und siehe da
DR13 -10.36 dB -31.56 dB 1:51 23-67. Nun ist der Herr
DR15 -6.19 dB -26.01 dB 5:36 24-68. Wir setzen uns
––––––––––––––––––––––––––––––––––––––––

Number of tracks: 24
Official DR value: DR14

Samplerate: 2822400 Hz / PCM Samplerate: 88200 Hz
Channels: 2
Bits per sample: 1
Bitrate: 5645 kbps
Codec: DSD
================================================================================



J.S. Bach - St. Matthew Passion [excerpts] (Masaaki Suzuki) [2004] (PS3 SACD rip)

J.S. Bach - St. Matthew Passion [excerpts] (Masaaki Suzuki) [2004] (PS3 SACD rip)



Album: J. S. Bach: St. Matthew Passion (excerpts)

Release Date: 2004

Label: BIS Records [1500]

Time: 81:18