Subcategories

Beach House - B-Sides and Rarities (2017) [Official Digital Download]

Posted By: HDV
Beach House - B-Sides and Rarities (2017) [Official Digital Download]

Beach House - B-Sides and Rarities (2017)
FLAC (tracks) 24-bit/44,1 kHz | Time - 56:35 minutes | 651 MB
Studio Master, Official Digital Download | Artwork: Front cover

"B-Sides and Rarities" is a compilation album by American dream pop band Beach House, released through Sub Pop and Bella Union. The compilation contains B-sides and rare, unreleased cuts along with two new songs, "Chariot" and "Baseball Diamond". It also includes the band's cover of Queen's "Play the Game".

Beach House fans were spoiled in the late 2010s: Not only did the band release Depression Cherry and Thank Your Lucky Stars within a year of each other, they followed it with an even deeper dive into their music with B-Sides and Rarities. Covering more than a decade's worth of songs, the collection underscores that while Beach House's music sounds fragile, it's also surprisingly resilient. Their albums range from charmingly lo-fi to ethereal perfection without diminishing any of their poignant beauty, and B-Sides and Rarities is nearly as consistent. The set is bookended by a pair of songs that are classic Beach House: The previously unreleased "Chariot" begins with glowing keyboards and a ticking drum machine that are instantly, reassuringly familiar, while the drifting "Wherever You Go" closes the album with a slow fade. In between, B-Sides and Rarities points out the similarities and differences in Beach House's music over the years, even if its tracks aren't in chronological order. "Rain in Numbers," a hushed, demo-quality song from 2005, proves once again that the interplay between Victoria Legrand and Alex Scally was magic from the start, while "Used to Be (2008 Single Version)" hints at the more polished approach they took on Teen Dream. Elsewhere, the Bloom outtake "Equal Mind" reflects that album's crystalline beauty, and the whispery ruminations of "Baseball Diamond" (the collection's other previously unreleased track) are lovely even if they're not quite up to the standard of the songs that appeared on Depression Cherry and Thank Your Lucky Stars. Many of B-Sides and Rarities' scattered gems come from 2009 and 2010, including standouts such as a remixed version of "White Moon" from their iTunes session EP and the aptly narcotic "10 Mile Stereo (Cough Syrup Remix)," which inflates the song's melancholy to vast proportions. Meanwhile, other Teen Dream-era outtakes like "Baby," a sardonic waltz about an overly confident lover, and the '70s sunshine pop-indebted "The Arrangement," serve as reminders that the band's rare glimpses of humor are a refreshing part of their music. A live version of "Norway" with a different bridge, and a lullaby cover of Queen's "Play the Game" are treats for super fans that round out a collection that's lovely in its own right, and in its own way, is just as representative of Beach House's music as a traditional best-of would be.

Tracklist:

01 - Chariot
02 - Baby
03 - Equal Mind
04 - Used To Be (2008 Single Version)
05 - White Moon (iTunes Session Remix)
06 - Baseball Diamond
07 - Norway (iTunes Session Remix)
08 - Play the Game
09 - The Arrangement
10 - Saturn Song
11 - Rain In Numbers
12 - I Do Not Care For the Winter Sun
13 - 10 Mile Stereo (Cough Syrup Remix)
14 - Wherever You Go

Analyzed: Beach House / B-Sides and Rarities
––––––––––––––––––––––––––––––––––––––––

DR Peak RMS Duration Track
––––––––––––––––––––––––––––––––––––––––
DR6 -0.40 dB -7.34 dB 5:17 01-Chariot
DR8 -0.41 dB -10.17 dB 3:03 02-Baby
DR7 -0.40 dB -9.24 dB 3:43 03-Equal Mind
DR6 -0.40 dB -9.09 dB 4:06 04-Used To Be (2008 Single Version)
DR8 -0.40 dB -9.39 dB 4:07 05-White Moon (iTunes Session Remix)
DR7 -0.40 dB -9.29 dB 4:36 06-Baseball Diamond
DR7 -0.40 dB -9.35 dB 3:16 07-Norway (iTunes Session Remix)
DR8 -0.40 dB -10.88 dB 4:18 08-Play the Game
DR7 0.00 dB -9.57 dB 5:05 09-The Arrangement
DR9 -0.40 dB -11.41 dB 4:31 10-Saturn Song
DR8 -0.40 dB -11.40 dB 2:27 11-Rain In Numbers
DR8 -0.40 dB -9.99 dB 3:11 12-I Do Not Care For the Winter Sun
DR7 -0.10 dB -9.13 dB 5:31 13-10 Mile Stereo (Cough Syrup Remix)
DR8 -0.40 dB -9.42 dB 3:27 14-Wherever You Go
––––––––––––––––––––––––––––––––––––––––

Number of tracks: 14
Official DR value: DR7

Samplerate: 44100 Hz
Channels: 2
Bits per sample: 24
Bitrate: 1461 kbps
Codec: FLAC
================================================================================


Thanks to the Original customer!

Beach House - Depression Cherry (2015)
Beach House - Thank Your Lucky Stars (2015)