Ben Webster - Gentle Ben (1972) [APO Remaster 2011] SACD ISO + Hi-Res FLAC

Posted By: HDAtall
Ben Webster - Gentle Ben (1972) [APO Remaster 2011] SACD ISO + Hi-Res FLAC

Ben Webster & Trio Tete Montoliu - Gentle Ben (1972) [Analogue Productions '2011]
SACD Rip | SACD ISO | DSD64 2.0 > 1-bit/2.8224 MHz | 55:55 minutes | Front/Rear Covers | 1,56 GB
or FLAC(converted with foobar2000 to tracks) 24bit/88,2 kHz | Front/Rear Covers | 1,11 GB

This recording was made 10 months before Ben Webster's death in 1972. Webster, who had left the United States in 1965 to settle in Europe - first in Copenhagen and then in Amsterdam - was visiting fellow musician and friend Tete Montoliu in Barcelona. Webster and pianist Montoliu went back a ways, having played together regularly in Webster's Copenhagen days. In fact, Montoliu cited Webster and Don Byas as his two chief musical influences. Webster and Montoliu understood each other deeply, and their comfort with on another is palpable in this recording. Their accompaniment of one another is seamless. On board with these two is Montoliu's regular working trio-mates, Eric Peter on bass and Peer Wyboris on drums.

This aptly named set was recorded on November 28, 1972, in Barcelona, Spain. Although many of Ben Webster's European sessions suffered when compared to his American ones, this outing is one of the exceptions, due in no small part to the fluid piano work of Tete Montoliu. Supported by a rhythm section of Eric Peter on bass and Peer Wyboris on drums, both Webster and Montoliu have plenty of room to breathe, and the result is a wonderful and pleasant set highlighted by the opening track, "Ben's Blues," and an easy, elegant version of "Sweet Georgia Brown." Webster's trademark breathy tenor sax tone is in full supply here, but the real revelation is Montoliu, who proves to be a marvelous jazz pianist, making Gentle Ben somewhat of an overlooked gem.

Tracklist:

01. Ben's Blues
02. The Man I Love
03. My Nephew Bent
04. How Long Has This Been Going On
05. Sweet Georgia Brown
06. Don't Blame Me
07. Did You Call
08. Barcelona Shout

Recorded on November 28, 1972 at Casino De L'Alianca Del Poblenou, Barcelona, Spain.
Mastered for this SACD by Kevin Gray at Cohearent Audio.

Personnel
Ben Webster - tenor saxophone
Tete Montoliu - piano
Eric Peter - bass
Peer Wyboris - drums

foobar2000 1.3.17 / Dynamic Range Meter 1.1.1

––––––––––––––––––––––––––––––––––––––––
Analyzed: Ben Webster / Gentle Ben
––––––––––––––––––––––––––––––––––––––––

DR Peak RMS Duration Track
––––––––––––––––––––––––––––––––––––––––
DR15 -5.95 dB -26.27 dB 9:05 01-Ben's Blues
DR15 -9.41 dB -29.75 dB 5:35 02-The Man I Love
DR16 -6.21 dB -28.23 dB 5:23 03-My Nephew Bent
DR15 -6.14 dB -29.50 dB 8:03 04-How Long Has This Been Going On
DR16 -5.69 dB -28.10 dB 6:29 05-Sweet Georgia Brown
DR17 -7.15 dB -28.37 dB 7:59 06-Don't Blame Me
DR17 -5.01 dB -27.34 dB 8:39 07-Did You Call
DR15 -6.69 dB -25.25 dB 4:41 08-Barcelona Shout
––––––––––––––––––––––––––––––––––––––––

Number of tracks: 8
Official DR value: DR16

Samplerate: 2822400 Hz / PCM Samplerate: 88200 Hz
Channels: 2
Bits per sample: 1
Bitrate: 5645 kbps
Codec: DSD64

Thanks to jazzyman!
Uncompressed SACD ISO size > 2,25 GB
>