Ben Webster Meets Oscar Peterson (1959) [APO Remaster 2011] SACD ISO + Hi-Res FLAC

Posted By: HDAtall
Ben Webster Meets Oscar Peterson (1959) [APO Remaster 2011] SACD ISO + Hi-Res FLAC

Ben Webster Meets Oscar Peterson (1959) [Analogue Productions '2011]
SACD Rip | SACD ISO | DSD64 2.0 > 1-bit/2.8224 MHz | 36:35 minutes | Front/Rear Covers | 1,07 GB
or FLAC(converted with foobar2000 to tracks) 24bit/88,2 kHz | Front/Rear Covers | 756 MB

Saxophonist Ben Webster is joined by legendary jazz pianist Oscar Peterson. Webster, known for his association with Duke Ellington's Jazz Orchestra playing lead tenor, frequently played with Peterson in the 1950s and are joined here by some of the best jazz musicians of the time. Ben Webster Meets Oscar Peterson was originally released in 1959, and this studio album is a compilation of seven great jazz tracks, including "How Deep is the Ocean," "In the Wee Small Hours of the Morning," and "Bye, Bye, Blackbird".

Another fine Webster release on Verve that sees the tenor great once again backed by the deluxe Oscar Peterson Trio. In keeping with the high standard of their Soulville collaboration of two years prior, Webster and the trio – Peterson is joined by bassist Ray Brown and drummer Ed Thigpen – use this 1959 date to conduct a clinic in ballad playing. And while Soulville certainly ranks as one of the tenor saxophonist's best discs, the Ben Webster Meets Oscar Peterson set gets even higher marks for its almost transcendent marriage of after-hours elegance and effortless mid-tempo swing – none of Webster's boogie-woogie piano work to break up the mood here. Besides reinvigorating such lithe strollers as "Bye Bye Blackbird" (nice bass work by Brown here) and "This Can't Be Love," Webster and company achieve classic status for their interpretation of the Sinatra gem "In the Wee Small Hours of the Morning." And to reassure Peterson fans worried about scant solo time for their hero, the pianist lays down a healthy number of extended runs, unobtrusively shadowing Webster's vaporous tone and supple phrasing along the way. Not only a definite first-disc choice for Webster newcomers, but one of the jazz legend's all-time great records.


01. The Touch Of Your Lips
02. When Your Lover Has Gone
03. Bye Bye Blackbird
04. How Deep Is The Ocean?
05. In The Wee Small Hours Of The Morning
06. Sunday
07. This Can't Be Love

Recorded on November 6, 1959 at United Recorders, Hollywood, CA.
Mastered for this SACD by George Marino at Sterling Sound, NYC.

Ben Webster - tenor saxophone
Oscar Peterson - piano
Ray Brown - double bass
Ed Thigpen - drums

foobar2000 1.3.17 / Dynamic Range Meter 1.1.1

Analyzed: Oscar Peterson / Ben Webster Meets Oscar Peterson

DR Peak RMS Duration Track
DR15 -7.24 dB -25.58 dB 6:17 01-The Touch Of Your Lips
DR14 -11.13 dB -28.43 dB 3:57 02-When Your Lover Has Gone
DR14 -7.46 dB -25.34 dB 6:43 03-Bye Bye Blackbird
DR15 -8.19 dB -26.50 dB 2:33 04-How Deep Is The Ocean?
DR13 -8.25 dB -26.15 dB 3:11 05-In The Wee Small Hours Of The Morning
DR15 -6.87 dB -25.07 dB 3:55 06-Sunday
DR16 -5.87 dB -25.76 dB 9:59 07-This Can't Be Love

Number of tracks: 7
Official DR value: DR15

Samplerate: 2822400 Hz / PCM Samplerate: 88200 Hz
Channels: 2
Bits per sample: 1
Bitrate: 5645 kbps
Codec: DSD64

Thanks to jazzyman!
Uncompressed SACD ISO size > 1,48 GB