Bernstein - Beethoven: Symphony No. 5 in C Minor, Op. 67 (2017) [Official Digital Download]

Posted By: shamanicus
Bernstein - Beethoven: Symphony No. 5 in C Minor, Op. 67 (2017) [Official Digital Download]

Bernstein - Beethoven: Symphony No. 5 in C Minor, Op. 67 (2017)
FLAC (tracks) 24-bit/192 kHz | Artwork: front cover | RAR | 1.55 Gb
Studio Master, Official Digital Download | Label: Sony Classical

Beethoven’s Fifth, described by one writer as "the most powerful work of musical rhetoric in orchestral literature," is surely the best-known symphony ever written. But how well do you really know this masterpiece? There are so many novel, forward-looking elements in it that it took years for some people to accept it as anything but unintelligible modern music.

Tracklist:

01. Symphony No. 5 in C Minor, Op. 67: I. Allegro con brio
02. Symphony No. 5 in C Minor, Op. 67: II. Andante con moto
03. Symphony No. 5 in C Minor, Op. 67: III. Scherzo. Allegro
04. Symphony No. 5 in C Minor, Op. 67: IV. Allegro
05. How a Great Symphony Was Written-Leonard Bernstein Talks About the First Movement of Beethoven's Fifth Symphony

foobar2000 1.3.16 / Dynamic Range Meter 1.1.1
log date: 2017-12-20 13:55:28

––––––––––––––––––––––––––––––––––––––––
Analyzed: Leonard Bernstein / Symphony No. 5 in C Minor, Op. 67 - Bernstein talks "How a Great Smphony was Written" (Remastered) (1)
New York Philharmonic - Leonard Bernstein / Symphony No. 5 in C Minor, Op. 67 - Bernstein talks "How a Great Smphony was Written" (Remastered) (2-5)
––––––––––––––––––––––––––––––––––––––––

DR Peak RMS Duration Track
––––––––––––––––––––––––––––––––––––––––
DR13 -2.80 dB -20.24 dB 12:02 05-How a Great Symphony Was Written-Leonard Bernstein Talks About the First Movement of Beethoven's Fifth Symphony (Remastered)
DR11 -0.22 dB -15.43 dB 8:39 01-Symphony No. 5 in C Minor, Op. 67 (Remastered): I. Allegro con brio
DR12 -0.49 dB -19.12 dB 10:08 02-Symphony No. 5 in C Minor, Op. 67 (Remastered): II. Andante con moto
DR12 -0.58 dB -19.25 dB 4:59 03-Symphony No. 5 in C Minor, Op. 67 (Remastered): III. Scherzo. Allegro
DR11 -0.22 dB -13.97 dB 11:29 04-Symphony No. 5 in C Minor, Op. 67 (Remastered): IV. Allegro
––––––––––––––––––––––––––––––––––––––––

Number of tracks: 5
Official DR value: DR12

Samplerate: 192000 Hz
Channels: 2
Bits per sample: 24
Bitrate: 5480 kbps
Codec: FLAC
================================================================================



Thanks to the Original customer.