Betty Blake - Betty Blake Sings In A Tender Mood (1961/2014) [Official Digital Download 24/96]

Posted By: HDV
Betty Blake - Betty Blake Sings In A Tender Mood (1961/2014) [Official Digital Download 24/96]

Betty Blake - Betty Blake Sings In A Tender Mood (1961/2014)
FLAC (tracks) 24-bit/96 kHz | Time - 31:42 minutes | 500 MB
Studio Master, Official Digital Download | Artwork: Front cover

Vocalist Betty Blake made one fine recording for Bethlehem in 1960, Betty Blake Sings in a Tender Mood. On the strength of it, she deserved more opportunities and exposure.

Another one-hit wonder on Bethlehem, this 1961 rarity was vocalist Betty Blake's first and last album and features Zoot Sims, Roland Alexander, Kenny Burrell and Mal Waldron among other top-notch session players. As the title hints, this is a ballad-heavy session showcasing five Alec Wilder ballads.

Tracklist:

01 - Let There Be Love
02 - I'll be around: I'll Be Around
03 - Moon and Sand: Moon And Sand
04 - Trouble Is a Man: Trouble Is A Man
05 - Love is Just Around the Corner: Love Is Just Around the Corner
06 - Lilac Wine
07 - It's so peaceful in the country: It's So Peaceful In The Country
08 - While We're Young
09 - Blue Fool
10 - Silk Stockings: All Of You
11 - Don't Say Love Has Ended
12 - Out Of This World

Digitally Remastered.

Analyzed: Abe Burrows/George S. Kaufman/Leueen MacGrath/Betty Blake / Betty Blake Sings in a Tender Mood (Remastered 2014) (1)
Alec Wilder/Bernie Hanighen/Betty Blake / Betty Blake Sings in a Tender Mood (Remastered 2014) (2)
Alec Wilder/Betty Blake / Betty Blake Sings in a Tender Mood (Remastered 2014) (3-4)
Alec Wilder/William Engvick/Betty Blake / Betty Blake Sings in a Tender Mood (Remastered 2014) (5)
Bill Engvick/Betty Blake / Betty Blake Sings in a Tender Mood (Remastered 2014) (6)
Ian Grant/Betty Blake / Betty Blake Sings in a Tender Mood (Remastered 2014) (7)
James Shelton/Betty Blake / Betty Blake Sings in a Tender Mood (Remastered 2014) (8)
Johnny Mercer/Betty Blake / Betty Blake Sings in a Tender Mood (Remastered 2014) (9)
Leo Robin/Betty Blake / Betty Blake Sings in a Tender Mood (Remastered 2014) (10)
Morry Palitz/Betty Blake / Betty Blake Sings in a Tender Mood (Remastered 2014) (11)
William Engvick/Betty Blake / Betty Blake Sings in a Tender Mood (Remastered 2014) (12)
––––––––––––––––––––––––––––––––––––––––

DR Peak RMS Duration Track
––––––––––––––––––––––––––––––––––––––––
DR11 -1.75 dB -14.23 dB 2:45 10-Silk Stockings: All Of You
DR10 -1.53 dB -13.32 dB 2:26 09-Blue Fool
DR10 -1.08 dB -13.98 dB 2:17 02-I'll be around: I'll Be Around
DR10 -1.76 dB -14.69 dB 2:30 04-Trouble Is a Man: Trouble Is A Man
DR10 -1.60 dB -14.85 dB 2:32 11-Don't Say Love Has Ended
DR11 -1.02 dB -14.80 dB 2:34 08-While We're Young
DR11 -1.55 dB -14.99 dB 1:56 01-Let There Be Love
DR9 -2.37 dB -14.55 dB 5:15 06-Lilac Wine
DR11 -0.97 dB -13.65 dB 2:34 12-Out Of This World
DR12 -1.16 dB -14.41 dB 2:19 05-Love is Just Around the Corner: Love Is Just Around the Corner
DR9 -1.94 dB -14.20 dB 2:01 03-Moon and Sand: Moon And Sand
DR10 -1.01 dB -13.44 dB 2:34 07-It's so peaceful in the country: It's So Peaceful In The Country
––––––––––––––––––––––––––––––––––––––––

Number of tracks: 12
Official DR value: DR10

Samplerate: 96000 Hz
Channels: 2
Bits per sample: 24
Bitrate: 2191 kbps
Codec: FLAC
================================================================================


Thanks to the Original customer!