Bill Evans Trio - Waltz For Debby (1962) [Japanese Limited SHM-SACD 2014] PS3 ISO + Hi-Res FLAC

Posted By: HDAtall
Bill Evans Trio - Waltz For Debby (1962) [Japanese Limited SHM-SACD 2014] PS3 ISO + Hi-Res FLAC

Bill Evans Trio - Waltz For Debby (1962) [Japanese Limited SHM-SACD 2014]
PS3 Rip | SACD ISO | DSD64 2.0 > 1-bit/2.8224 MHz | 38:22 minutes | Scans included | 1,16 GB
or FLAC(converted with foobar2000 to tracks) 24bit/88,2 kHz | Full Scans included | 810 MB

Recorded at the Village Vanguard in 1961, shortly before Scott LaFaro's death, Waltz for Debby is the second album issued from that historic session, and the final one from that legendary trio that also contained drummer Paul Motian. While the Sunday at the Village Vanguard album focused on material where LaFaro soloed prominently, this is far more a portrait of the trio on those dates. Evans chose the material here, and, possibly, in some unconscious way, revealed on these sessions – and the two following LaFaro's death (Moonbeams and How My Heart Sings!) – a different side of his musical personality that had never been displayed on his earlier solo recordings or during his tenures with Miles Davis and George Russell: Evans was an intensely romantic player, flagrantly emotional, and that is revealed here in spades on tunes such as "My Foolish Heart" and "Detour Ahead." There is a kind of impressionistic construction to his harmonic architecture that plays off the middle registers and goes deeper into its sonances in order to set into motion numerous melodic fragments simultaneously. The rhythmic intensity that he displayed as a sideman is evident here in "Milestones," with its muscular shifting time signature and those large, flatted ninths with the right hand. The trio's most impressive interplay is in "My Romance," after Evans' opening moments introducing the changes. Here Motian's brushwork is delicate, flighty and elegant, and LaFaro controls the dynamic of the tune with his light as a feather pizzicato work and makes Evans' deeply emotional statements swing effortlessly. Of the many recordings Evans issued, the two Vanguard dates and Explorations are the ultimate expressions of his legendary trio.

Tracklist:

01. My Foolish Heart
02. Waltz for Debby
03. Detour Ahead
04. My Romance
05. Some Other Time
06. Milestones

Personnel
Bill Evans – piano
Scott LaFaro – bass
Paul Motian – drums

foobar2000 1.3.9 / Dynamic Range Meter 1.1.1

––––––––––––––––––––––––––––––––––––––––
Analyzed: BILL EVANS TRIO / WALTZ FOR DEBBY
––––––––––––––––––––––––––––––––––––––––

DR Peak RMS Duration Track
––––––––––––––––––––––––––––––––––––––––
DR14 -7.41 dB -25.41 dB 4:57 01-MY FOOLISH HEART
DR13 -4.53 dB -21.05 dB 6:57 02-WALTZ FOR DEBBY
DR14 -7.83 dB -26.60 dB 7:36 03-DETOUR AHEAD
DR14 -5.67 dB -24.22 dB 7:12 04-MY ROMANCE
DR15 -9.46 dB -30.94 dB 5:07 05-SOME OTHER TIME
DR13 -5.23 dB -23.15 dB 6:33 06-MILESTONES
––––––––––––––––––––––––––––––––––––––––

Number of tracks: 6
Official DR value: DR14

Samplerate: 88200 Hz
Channels: 2
Bits per sample: 24
Bitrate: 5645 kbps
Codec: DSD64


Thanks to PS³SACD!
Uncompressed SACD ISO size > 1,55 GB

If you want leave some comment - login at the mirror > http://old.avxhome.se/hraphile

More of BILL EVANS on SACDs
SACD ISO 1
SACD ISO 2
FLAC