Billy Joel - Greatest Hits: Volume I & Volume II (1985) [MFSL 2017] PS3 ISO + Hi-Res FLAC

Posted By: HDAtall
Billy Joel - Greatest Hits: Volume I & Volume II (1985) [MFSL 2017] PS3 ISO + Hi-Res FLAC

Billy Joel - Greatest: Hits Volume I & Volume II (1985) [MFSL 2017]
PS3 Rip | SACD ISO | DSD64 2.0 > 1-bit/2.8224 MHz | 117:28 minutes | Scans included | 3,13 GB
or FLAC(converted with foobar2000 to tracks) 24bit/88,2 kHz | Full Scans included | 2,44 GB
2x SACD / Mobile Fidelity Sound Lab # UDSACD 2-2121

Although it's missing a few important (not to mention big) hits, Greatest Hits, Vols. 1 & 2 is an excellent retrospective of the first half of Billy Joel's career. Beginning with "Piano Man," the first disc runs through a number of early songs before arriving at the hit-making days of the late '70s; some of these songs, including "Captain Jack" and "New York State of Mind," weren't strictly hits, but were popular numbers within his stage show and became radio hits. Once the songs from The Stranger arrive halfway through the first disc, there's no stopping the hits (although "Scenes From an Italian Restaurant," an album track from The Stranger, manages its way onto the collection). In fact, over the next disc and a half, there's so many hits, it's inevitable that some are left off – to be specific, "Honesty," "Sometimes a Fantasy," "An Innocent Man," "Leave a Tender Moment," and "Keeping the Faith" aren't included. But all the other hits – including "Just the Way You Are," "Only the Good Die Young," "My Life," "You May Be Right," "It's Still Rock and Roll to Me," "Don't Ask Me Why," "Allentown," "Tell Her About It" and "Uptown Girl," among many others – are present and accounted for, as are two new songs ("You're Only Human (Second Wind)," "The Night Is Still Young") that became hits as well. In short, Greatest Hits, Vols. 1 & 2 does its job perfectly, encapsulating exactly why Billy Joel was one of the most popular singer/songwriters of the late '70s and early '80s.

Disc 1 - Volume I: 1973-1977

01. Piano Man
02. Captain Jack
03. The Entertainer
04. Say Goodbye To Hollywood
05. New York State Of Mind
06. The Stranger
07. Scenes From An Italian Restaurant
08. Just The Way You Are
09. Movin' Out (Anthony's Song)
10. Only The Good Die Young
11. She's Always A Woman

foobar2000 1.3.16 / Dynamic Range Meter 1.1.1

––––––––––––––––––––––––––––––––––––––––
Analyzed: Billy Joel / Billy Joel Greatest Hits Volume I
––––––––––––––––––––––––––––––––––––––––

DR Peak RMS Duration Track
––––––––––––––––––––––––––––––––––––––––
DR11 -7.64 dB -21.79 dB 5:37 01-Piano Man
DR11 -7.79 dB -22.72 dB 6:58 02-Captain Jack
DR14 -6.28 dB -23.82 dB 3:40 03-The Entertainer
DR13 -6.49 dB -22.57 dB 4:36 04-Say Goodbye To Hollywood
DR13 -6.31 dB -24.20 dB 6:04 05-New York State Of Mind
DR13 -6.61 dB -22.94 dB 5:08 06-The Stranger
DR13 -6.33 dB -22.51 dB 7:33 07-Scenes From An Italian Restaurant
DR15 -6.30 dB -24.92 dB 4:49 08-Just The Way You Are
DR13 -6.14 dB -21.76 dB 3:29 09-Movin' Out (Anthony's Song)
DR13 -6.24 dB -22.00 dB 3:52 10-Only The Good Die Young
DR11 -9.59 dB -22.77 dB 3:22 11-She's Always A Woman
––––––––––––––––––––––––––––––––––––––––

Number of tracks: 11
Official DR value: DR13

Samplerate: 2822400 Hz / PCM Samplerate: 88200 Hz
Channels: 2
Bits per sample: 1
Bitrate: 5645 kbps
Codec: DSD64



Disc 2 - Volume II: 1978-1985

01. My Life
02. Big Shot
03. Honesty
04. You May Be Right
05. It's Still Rock And Roll To Me
06. Don't Ask Me Why
07. She's Got A Way
08. Pressure
09. Allentown
10. Goodnight Saigon
11. Tell Her About It
12. Uptown Girl
13. The Longest Time
14. You're Only Human (Second Wind)
15. The Night Is Still Young

foobar2000 1.3.16 / Dynamic Range Meter 1.1.1

––––––––––––––––––––––––––––––––––––––––
Analyzed: Billy Joel / Billy Joel Greatest Hits Vol. II
––––––––––––––––––––––––––––––––––––––––

DR Peak RMS Duration Track
––––––––––––––––––––––––––––––––––––––––
DR14 -6.83 dB -22.56 dB 4:43 01-My Life
DR13 -6.76 dB -22.52 dB 4:01 02-Big Shot
DR13 -9.04 dB -25.28 dB 3:54 03-Honesty
DR13 -6.09 dB -21.01 dB 4:13 04-You May Be Right
DR14 -6.28 dB -22.54 dB 2:57 05-It's Still Rock And Roll To Me
DR15 -6.93 dB -23.58 dB 2:58 06-Don't Ask Me Why
DR14 -8.08 dB -26.02 dB 3:00 07-She's Got A Way
DR13 -8.00 dB -22.76 dB 4:39 08-Pressure
DR13 -6.54 dB -21.93 dB 3:51 09-Allentown
DR14 -6.55 dB -25.43 dB 6:59 10-Goodnight Saigon
DR13 -7.10 dB -21.76 dB 3:52 11-Tell Her About It
DR12 -6.83 dB -20.31 dB 3:15 12-Uptown Girl
DR12 -9.08 dB -23.67 dB 3:38 13-The Longest Time
DR14 -6.49 dB -22.86 dB 4:49 14-You're Only Human (Second Wind)
DR13 -6.94 dB -23.57 dB 5:30 15-The Night Is Still Young
––––––––––––––––––––––––––––––––––––––––

Number of tracks: 15
Official DR value: DR13

Samplerate: 2822400 Hz / PCM Samplerate: 88200 Hz
Channels: 2
Bits per sample: 1
Bitrate: 5645 kbps
Codec: DSD64


Mastered by Shawn R. Britton, Assisted by Rob LoVerde at Mobile Fidelity Sound Lab, Sebastopol, CA.

Uncompressed SACD ISO size > 2,22 + 2,51 GB
Thanks to PS³SACD!
>