Black Rubber Stub - Love Drink [Remastered] (2012/2019) [Official Digital Download 24/96]

Posted By: El Misha
Black Rubber Stub - Love Drink [Remastered] (2012/2019) [Official Digital Download 24/96]

Black Rubber Stub - Love Drink (2012/2019)
FLAC (tracks) 24-bit/96 kHz | Time - 57:39 | 1.27 GB
Studio Master, Official Digital Download | Artwork: Front cover

The Black Rubber Stub (first known as The Recorders) can only be heard on the recording. A musical project does not give concerts, the result of its work is exclusively audio recordings and video, shot to illustrate musical compositions.



Tracklist:

1. The Big Dog Runs 05:18
2. I'm Drinking 03:04
3. Black Rubber Song 03:38
4. Again and Again 03:34
5. Love Drink 03:32
6. Big Master Sun 03:47
7. Open The Door 03:25
8. Ready To Fun 02:49
9. Holes In My Palms 03:36
10. Good Night 03:49
11. Sky and Earth 03:27
12. Into Ashes 03:10
13. Fear and Happiness 03:39
14. The Silver Cage 03:32
15. And The Devil Rubs Hands 03:38
16. Looked 03:41

foobar2000 1.4.1 / Замер динамического диапазона (DR) 1.1.1
Дата отчёта: 2019-08-19 11:04:20

––––––––––––––––––––––––––––––––––––––––
Анализ: Black Rubber Stub / Love Drink
––––––––––––––––––––––––––––––––––––––––

DR Пики RMS Продолжительность трека
––––––––––––––––––––––––––––––––––––––––
DR7 -0.41 дБ -7.94 дБ 5:18 01-The Big Dog Runs
DR7 -0.41 дБ -8.09 дБ 3:04 02-I'm Drinking
DR7 -0.41 дБ -7.88 дБ 3:38 03-Black Rubber Song
DR7 -0.41 дБ -8.40 дБ 3:34 04-Again and Again
DR7 -0.41 дБ -7.77 дБ 3:32 05-Love Drink
DR6 -0.41 дБ -7.50 дБ 3:47 06-Big Master Sun
DR7 -0.41 дБ -7.75 дБ 3:25 07-Open The Door
DR9 -0.41 дБ -10.12 дБ 2:49 08-Ready To Fun
DR7 -0.41 дБ -7.52 дБ 3:36 09-Holes In My Palms
DR6 -0.41 дБ -7.34 дБ 3:49 10-Good Night
DR6 -0.41 дБ -7.10 дБ 3:27 11-Sky and Earth
DR7 -0.41 дБ -8.30 дБ 3:10 12-Into Ashes
DR7 -0.41 дБ -7.47 дБ 3:39 13-Fear And Happiness
DR7 -0.41 дБ -7.83 дБ 3:32 14-The Silver Cage
DR6 -0.41 дБ -7.27 дБ 3:38 15-And The Devil Rubs Hands
DR6 -0.41 дБ -6.85 дБ 3:41 16-Looked
––––––––––––––––––––––––––––––––––––––––

Количество треков: 16
Реальные значения DR: DR7

Частота: 96000 Гц
Каналов: 2
Разрядность: 24
Битрейт: 3182 кбит/с
Кодек: FLAC
================================================================================



Thanks to the Original customer!