Blind Guardian - Beyond The Red Mirror (2015/2018) [Official Digital Download 24-bit/96kHz]

Posted By: HDV
Blind Guardian - Beyond The Red Mirror (2015/2018) [Official Digital Download 24-bit/96kHz]

Blind Guardian - Beyond The Red Mirror (2015/2018)
FLAC (tracks) 24-bit/96 kHz | Time - 70:54 minutes | 1,52 GB
Studio Master, Official Digital Download | Artwork: Front cover

"Beyond the Red Mirror" is the tenth studio album by German metal band Blind Guardian. A concept album and a sequel to "Imaginations from the Other Side", "Beyond the Red Mirror" has been described by Hansi Kürsch as "A story between science fiction and fantasy. The two worlds described have changed dramatically for the worse since then. While there used to be several passages between the worlds, there is only one gate left now: The Red Mirror. It has to be found at any cost".


Blind Guardian - Beyond The Red Mirror (2015/2018) [Official Digital Download 24-bit/96kHz]

The German power metal unit's tenth studio album and first since 2010's At the Edge of Time, Beyond the Red Mirror is being billed as a sequel to 1995's much-loved Imaginations from the Other Side, but listeners need not be versed in that sci-fi/fantasy narrative to enjoy the ride, as per usual, Blind Guardian lets the music do most of the talking. Sparing no expense, the band enlisted two full 90-piece orchestras and three international choirs (Prague, Budapest, and Boston), but unlike some of their symphony-loving peers, the window dressing is integrated tastefully, allowing the veteran band's well-established technical skill set to shine through. Nearly three decades into their career, Blind Guardian still sound like a spinning top at the edge of a very high (and very ornate) table, firing ideas into the ether with the subtlety of a Gatling Gun, while miraculously maintaining their footing. Nowhere is this penchant for frantic, progressive metal fanfare more apparent than on the nearly ten-minute opener "The Ninth Wave, a lavish, electro-tinged, pseudo-Wagnerian epic that feels like a highlight reel of the band's entire career thus far. Like the majority of the ten-track set, it's bold, immediate, and relentlessly melodic, due in large part to frontman Hansi Kursch's robust vocals, whose stacked Dee Snider-meets-Queen harmonies and commanding presence form the basis of nearly all of the group's best offerings. That equation is put to its best use on the rollicking follow-up, "Twilight of the Gods," the closest Beyond the Red Mirror gets to a single, and a prime example of how deft the band is at fusing pop melodies to a backbone of pure metal might. The rest of the album follows suit, making stops at vintage thrash ("The Holy Grail"), Iron Maiden-inspired, guitarmony-laden NWOBHM ("Prophecies"), and opera metal ("The Throne"), before tying things up with the aptly named "Grand Parade," another just-under-ten-minute, neo-classical metal stunner that's as unapologetically ostentatious as it is genuinely goose bump-inducing.

Tracklist:

01 - The Ninth Wave
02 - Twilight Of The Gods
03 - Prophecies
04 - At The Edge Of Time
05 - Ashes Of Eternity
06 - Distant Memories [Bonus Track]
07 - The Holy Grail
08 - The Throne
09 - Sacred Mind
10 - Miracle Machine
11 - Grand Parade

Produced by Charlie Bauerfeind.
Recorded in 2014 at Twilight Hall Studio, Grefrath, Germany.

Musicians:
Hansi Kürsch - lead and backing vocals
André Olbrich - lead, rhythm and acoustic guitars
Marcus Siepen - rhythm guitar
Frederik Ehmke - drums, percussion
AdditionalMusicians:
Barend Courbois - bass guitar
Michael Schüren - piano
Mattias Ulmer - keyboards, piano

Analyzed: 2015 Nuclear Blast GmbH / Beyond The Red Mirror
––––––––––––––––––––––––––––––––––––––––

DR Peak RMS Duration Track
––––––––––––––––––––––––––––––––––––––––
DR8 -0.20 dB -9.31 dB 9:27 01-The Ninth Wave
DR7 -0.20 dB -8.27 dB 4:49 02-Twilight Of The Gods
DR7 -0.20 dB -7.88 dB 5:25 03-Prophecies
DR7 -0.30 dB -9.05 dB 6:54 04-At The Edge Of Time
DR7 0.00 dB -7.75 dB 5:39 05-Ashes Of Eternity
DR8 -0.30 dB -10.12 dB 5:51 06-Distant Memories
DR7 -0.19 dB -8.36 dB 6:02 07-The Holy Grail
DR8 -0.01 dB -9.46 dB 7:54 08-The Throne
DR7 -0.20 dB -8.73 dB 6:22 09-Sacred Mind
DR11 -4.29 dB -17.92 dB 3:03 10-Miracle Machine
DR8 -0.20 dB -9.19 dB 9:28 11-Grand Parade
––––––––––––––––––––––––––––––––––––––––

Number of tracks: 11
Official DR value: DR8

Samplerate: 96000 Hz
Channels: 2
Bits per sample: 24
Bitrate: 2836 kbps
Codec: FLAC
================================================================================


Thanks to the Original customer!