Bob Dylan - The Cutting Edge 1965-1966: Bootleg Series Vol. 12 {Collector's Edition} (2015) [24-96] RE-UP

Posted By: HDV
Bob Dylan - The Cutting Edge 1965-1966: Bootleg Series Vol. 12 {Collector's Edition} (2015) [24-96] RE-UP

Bob Dylan - The Cutting Edge 1965-1966: Bootleg Series Volume 12 (2015) [Collector's Edition]
FLAC (tracks) 24-bit/96 kHz | Time - 19 hours 4 minutes 36 seconds | ~ 22,8 GB
Studio Master, Official Digital Download | Artwork: Not available (Front included)

The 18CD Collector's Edition of The Cutting Edge 1965-1966: The Bootleg Series Vol. 12 is limited to a worldwide pressing of only 5,000 copies, and includes every note recorded during the 1965-1966 sessions, every alternate take and alternate lyrics. The 18CD edition includes Dylan's original nine mono 45 RPM singles released during the time period, and rare hotel room recordings from the Savoy Hotel in London (May 4, 1965), the North British Station Hotel in Glasgow (May 13, 1966) and a Denver, Colorado hotel (March 12, 1966) as well as a strip of original film cels from "Don't Look Back". This HD version available as download coupon to Hi-Res files included in each box.

Bob Dylan - The Cutting Edge 1965-1966: Bootleg Series Vol. 12 {Collector's Edition} (2015) [24-96] RE-UP

This limited-edition version of The Cutting Edge 1965-1966 is where Bob Dylan's Bootleg Series meets Sony's Copyright Extension series. The former is well-known, begun with a splash with a triple-disc box in 1991 that marked the first official release of many heavily bootlegged items and the first-ever release of many unheard gems, but the latter is something of an obscurity, partially because it started out of a business necessity. European copyright laws changed in 2011, allowing for recorded works to enter public domain provided that the owner hadn't published the works in some form, a move that prompted some major labels to rush out unreleased tapes in their vaults just so they could retain ownership. The first of these was The 50th Anniversary Collection: The Copyright Extension Collection, Vol. 1, an extremely limited edition released in Europe in 2012 preserving all 1962 Dylan recordings owned by Sony, and they followed as European-only sets until The Cutting Edge, possibly because 1965-1966 is indeed considered the gold mine for Dylan fanatics. So, to accompany their monumental six-disc box The Cutting Edge 1965-1966, Sony assembled a lavish 18-disc Collector's Edition box, priced at $599.99 and limited to 5,000 copies worldwide – not a lot of copies but far more than the reported 100 for The 50th Anniversary Collection, and produced with considerable care in packaging, particularly when compared with the shoddy entries on the Copyright Extension series. Anybody that listened to the third disc of The Cutting Edge, the one that runs through every take of "Like a Rolling Stone," has a taste for what's here: take after take of a tune as Dylan and his bands work to find the song's distinct voice. To be sure, there are some gems here that did not make the six-disc box – considering how "She's Your Love Now" never became fully formed, hearing all the breakdowns is enthralling and just hearing a thick guitar grind on a rehearsal of "I Wanna Be Your Lover" can provide a jolt – and the very last disc containing hotel room tapes from 1965 and 1966 points the way toward The Basement Tapes (indeed, "Young But Daily Growing" surfaces here, along with other old country covers) but this, by design, is for the hardcore, whereas the six-disc set can dazzle the mere faithful. It will pay back ample dividends if you devote the time, but you need to meet this Collector's Edition on its own terms.

Tracklist:

CD1 #01 - Love Minus Zero/No Limit – Take 1 (1/13/1965) Breakdown
CD1 #02 - Love Minus Zero/No Limit – Take 2 (1/13/1965) Complete
CD1 #03 - I’ll Keep It with Mine – Take 1 (1/13/1965) Released on Biograph, 1985
CD1 #04 - It’s All Over Now, Baby Blue – Take 1 (1/13/1965) Released on The Bootleg Series, Vol. 7, 2005
CD1 #05 - Bob Dylan’s 115th Dream – Take 1 (1/13/1965) Fragment. Released on Bringing It All Back Home, 1965
CD1 #06 - Bob Dylan’s 115th Dream – Take 2 (1/13/1965) Complete
CD1 #07 - She Belongs to Me – Take 1 (1/13/1965) Complete
CD1 #08 - Subterranean Homesick Blues – Take 1 (1/13/1965) Released on The Bootleg Series, Vol. 1-3, 1991
CD1 #09 - Outlaw Blues – Take 1 (1/13/1965) Complete
CD1 #10 - On the Road Again – Take 1 (1/13/1965) Complete
CD1 #11 - Farewell Angelina – Take 1 (1/13/1965) Released on The Bootleg Series, Vol. 1-3, 1991
CD1 #12 - If You Gotta Go, Go Now – Take 1 (1/13/1965) Complete
CD1 #13 - You Don’t Have to Do That – Take 1 (1/13/1965) Incomplete
CD1 #14 - California – Take 1 (1/13/1965) Complete
CD1 #15 - Love Minus Zero/No Limit – Take 3 Remake (1/13/1965) Complete
CD1 #16 - She Belongs to Me – Take 2 Remake (1/13/1965) Complete
CD1 #17 - Outlaw Blues – Take 1 Remake (1/13/1965) False Start
CD1 #18 - Outlaw Blues – Take 2 Remake (1/13/1965) Complete
CD1 #19 - Love Minus Zero/No Limit – Take 1 Remake (1/14/1965) Complete
CD1 #20 - Love Minus Zero/No Limit – Take 2 Remake (1/14/1965) Released on Bringing It All Back Home, 1965
CD1 #21 - Love Minus Zero/No Limit – (1/14/1965) Insert
CD1 #22 - Subterranean Homesick Blues – Take 1 Remake (1/14/1965) Complete
CD1 #23 - Subterranean Homesick Blues – Take 2 Remake (1/14/1965) False Start
CD1 #24 - Subterranean Homesick Blues – Take 3 Remake (1/14/1965) Released on Bringing It All Back Home, 1965
CD1 #25 - Outlaw Blues – Take 1 Remake (1/14/1965) False Start
CD1 #26 - Outlaw Blues – Take 2 Remake (1/14/1965) Fragment/Breakdown
CD1 #27 - Outlaw Blues – Take 3 Remake (1/14/1965) Released on Bringing It All Back Home, 1965

Analyzed: Bob Dylan / The Bootleg Series, Vol. 12: The Cutting Edge 1965-1966 (Collector's Edition) (24/96) [Disc 1]
––––––––––––––––––––––––––––––––––––––––

DR Peak RMS Duration Track
––––––––––––––––––––––––––––––––––––––––
DR12 -0.73 dB -14.74 dB 1:35 01-Love Minus Zero/No Limit – Take 1 (1/13/1965) Breakdown
DR12 -0.72 dB -14.43 dB 3:11 02-Love Minus Zero/No Limit – Take 2 (1/13/1965) Complete
DR10 -2.05 dB -15.49 dB 4:12 03-I’ll Keep It with Mine – Take 1 (1/13/1965) Released on Biograph, 1985
DR11 -2.57 dB -14.90 dB 3:35 04-It’s All Over Now, Baby Blue – Take 1 (1/13/1965) Released on The Bootleg Series, Vol. 7, 2005
DR11 -3.64 dB -19.02 dB 0:26 05-Bob Dylan’s 115th Dream – Take 1 (1/13/1965) Fragment. Released on Bringing It All Back Home, 1965
DR10 -2.65 dB -14.57 dB 5:51 06-Bob Dylan’s 115th Dream – Take 2 (1/13/1965) Complete
DR12 -1.17 dB -15.99 dB 2:58 07-She Belongs to Me – Take 1 (1/13/1965) Complete
DR11 -2.30 dB -15.69 dB 3:08 08-Subterranean Homesick Blues – Take 1 (1/13/1965) Released on The Bootleg Series, Vol. 1-3, 1991
DR12 -1.70 dB -15.50 dB 2:17 09-Outlaw Blues – Take 1 (1/13/1965) Complete
DR11 -1.48 dB -13.43 dB 2:31 10-On the Road Again – Take 1 (1/13/1965) Complete
DR12 -2.41 dB -16.47 dB 5:29 11-Farewell Angelina – Take 1 (1/13/1965) Released on The Bootleg Series, Vol. 1-3, 1991
DR12 -3.35 dB -16.32 dB 2:54 12-If You Gotta Go, Go Now – Take 1 (1/13/1965) Complete
DR13 -1.83 dB -17.15 dB 0:51 13-You Don’t Have to Do That – Take 1 (1/13/1965) Incomplete
DR12 -1.27 dB -14.83 dB 3:06 14-California – Take 1 (1/13/1965) Complete
DR12 -1.92 dB -16.27 dB 3:41 15-Love Minus Zero/No Limit – Take 3 Remake (1/13/1965) Complete
DR12 -0.43 dB -14.21 dB 3:21 16-She Belongs to Me – Take 2 Remake (1/13/1965) Complete
DR15 -7.33 dB -24.87 dB 0:29 17-Outlaw Blues – Take 1 Remake (1/13/1965) False Start
DR11 -0.86 dB -13.69 dB 3:30 18-Outlaw Blues – Take 2 Remake (1/13/1965) Complete
DR10 -1.70 dB -13.25 dB 2:43 19-Love Minus Zero/No Limit – Take 1 Remake (1/14/1965) Complete
DR9 -1.43 dB -12.08 dB 2:58 20-Love Minus Zero/No Limit – Take 2 Remake (1/14/1965) Released on Bringing It All Back Home, 1965
DR11 -1.54 dB -17.38 dB 1:53 21-Love Minus Zero/No Limit – (1/14/1965) Insert
DR10 -1.46 dB -12.99 dB 2:40 22-Subterranean Homesick Blues – Take 1 Remake (1/14/1965) Complete
DR16 -2.06 dB -20.73 dB 0:24 23-Subterranean Homesick Blues – Take 2 Remake (1/14/1965) False Start
DR10 -1.50 dB -12.83 dB 2:28 24-Subterranean Homesick Blues – Take 3 Remake (1/14/1965) Released on Bringing It All Back Home, 1965
DR11 -2.29 dB -17.01 dB 0:31 25-Outlaw Blues – Take 1 Remake (1/14/1965) False Start
DR10 -1.66 dB -15.06 dB 1:01 26-Outlaw Blues – Take 2 Remake (1/14/1965) Fragment/Breakdown
DR10 -1.09 dB -13.33 dB 3:09 27-Outlaw Blues – Take 3 Remake (1/14/1965) Released on Bringing It All Back Home, 1965
––––––––––––––––––––––––––––––––––––––––

Number of tracks: 27
Official DR value: DR11

Samplerate: 96000 Hz
Channels: 2
Bits per sample: 24
Bitrate: 2959 kbps
Codec: FLAC
================================================================================



CD2 #01 - She Belongs to Me – Take 1 Remake (1/14/1965) Complete
CD2 #02 - She Belongs to Me – Take 2 Remake (1/14/1965) Released on Bringing It All Back Home, 1965
CD2 #03 - Bob Dylan’s 115th Dream – Take 1 (1/14/1965) False Start
CD2 #04 - Bob Dylan’s 115th Dream – Take 2 (1/14/1965) Released on Bringing It All Back Home, 1965
CD2 #05 - On the Road Again – Take 1 (1/14/1965) False Start
CD2 #06 - On the Road Again – Take 2 (1/14/1965) Complete
CD2 #07 - On the Road Again – Take 3 (1/14/1965) False Start
CD2 #08 - On the Road Again – Take 4 (1/14/1965) Complete
CD2 #09 - Maggie’s Farm – Take 1 (1/15/1965) Released on Bringing It All Back Home, 1965
CD2 #10 - On the Road Again – Take 1 Remake (1/15/1965) Complete
CD2 #11 - On the Road Again – Takes 2-6 Remake (1/15/1965) False Starts/Complete
CD2 #12 - On the Road Again – Take 7 Remake (1/15/1965) Complete
CD2 #13 - On the Road Again – Takes 8-9 Remake (1/15/1965) False Starts
CD2 #14 - On the Road Again – Take 11 Remake (1/15/1965) False Start
CD2 #15 - On the Road Again – Take 12 Remake (1/15/1965) False Start
CD2 #16 - On the Road Again – Take 13 Remake (1/15/1965) Released on Bringing It All Back Home, 1965
CD2 #17 - It’s Alright, Ma (I’m Only Bleeding) – Take 1 (1/15/1965) False Start
CD2 #18 - It’s Alright, Ma (I’m Only Bleeding) – Take 2 (1/15/1965) Released on Bringing It All Back Home, 1965
CD2 #19 - Gates of Eden – Take 1 (1/15/1965) Released on Bringing It All Back Home, 1965
CD2 #20 - Mr. Tambourine Man – Takes 1-2 (1/15/1965) False Starts
CD2 #21 - Mr. Tambourine Man – Take 3 (1/15/1965) Breakdown
CD2 #22 - Mr. Tambourine Man – Takes 4-5 (1/15/1965) Breakdown
CD2 #23 - Mr. Tambourine Man – Take 6 (1/15/1965) Released on Bringing It All Back Home, 1965
CD2 #24 - It’s All Over Now, Baby Blue – Take 1 Remake (1/15/1965) Released on Bringing It All Back Home, 1965

Analyzed: Bob Dylan / The Bootleg Series, Vol. 12: The Cutting Edge 1965-1966 (Collector's Edition) (24/96) [Disc 2]
––––––––––––––––––––––––––––––––––––––––

DR Peak RMS Duration Track
––––––––––––––––––––––––––––––––––––––––
DR11 -1.84 dB -14.89 dB 2:49 01-She Belongs to Me – Take 1 Remake (1/14/1965) Complete
DR11 -1.53 dB -14.64 dB 2:50 02-She Belongs to Me – Take 2 Remake (1/14/1965) Released on Bringing It All Back Home, 1965
DR14 -2.06 dB -16.30 dB 0:08 03-Bob Dylan’s 115th Dream – Take 1 (1/14/1965) False Start
DR9 -1.54 dB -11.84 dB 6:08 04-Bob Dylan’s 115th Dream – Take 2 (1/14/1965) Released on Bringing It All Back Home, 1965
DR14 -1.68 dB -20.58 dB 0:28 05-On the Road Again – Take 1 (1/14/1965) False Start
DR9 -1.54 dB -12.38 dB 2:55 06-On the Road Again – Take 2 (1/14/1965) Complete
DR11 -4.02 dB -20.75 dB 0:43 07-On the Road Again – Take 3 (1/14/1965) False Start
DR10 -1.69 dB -12.67 dB 2:33 08-On the Road Again – Take 4 (1/14/1965) Complete
DR10 -1.44 dB -12.59 dB 4:01 09-Maggie’s Farm – Take 1 (1/15/1965) Released on Bringing It All Back Home, 1965
DR10 -2.48 dB -14.05 dB 3:22 10-On the Road Again – Take 1 Remake (1/15/1965) Complete
DR10 -1.42 dB -13.96 dB 2:47 11-On the Road Again – Takes 2-6 Remake (1/15/1965) False Starts/Complete
DR10 -1.47 dB -13.43 dB 2:49 12-On the Road Again – Take 7 Remake (1/15/1965) Complete
DR9 -1.46 dB -15.19 dB 0:38 13-On the Road Again – Takes 8-9 Remake (1/15/1965) False Starts
DR12 -1.46 dB -15.80 dB 0:45 14-On the Road Again – Take 11 Remake (1/15/1965) False Start
DR10 -1.54 dB -17.28 dB 0:16 15-On the Road Again – Take 12 Remake (1/15/1965) False Start
DR11 -1.59 dB -14.52 dB 2:39 16-On the Road Again – Take 13 Remake (1/15/1965) Released on Bringing It All Back Home, 1965
DR13 -4.24 dB -22.67 dB 1:10 17-It’s Alright, Ma (I’m Only Bleeding) – Take 1 (1/15/1965) False Start
DR15 -1.73 dB -18.88 dB 7:32 18-It’s Alright, Ma (I’m Only Bleeding) – Take 2 (1/15/1965) Released on Bringing It All Back Home, 1965
DR12 -1.67 dB -15.73 dB 5:45 19-Gates of Eden – Take 1 (1/15/1965) Released on Bringing It All Back Home, 1965
DR12 -1.51 dB -19.91 dB 1:52 20-Mr. Tambourine Man – Takes 1-2 (1/15/1965) False Starts
DR11 -1.28 dB -13.92 dB 3:25 21-Mr. Tambourine Man – Take 3 (1/15/1965) Breakdown
DR11 -6.61 dB -24.44 dB 0:28 22-Mr. Tambourine Man – Takes 4-5 (1/15/1965) Breakdown
DR12 -1.97 dB -16.61 dB 5:55 23-Mr. Tambourine Man – Take 6 (1/15/1965) Released on Bringing It All Back Home, 1965
DR12 -1.71 dB -16.97 dB 4:14 24-It’s All Over Now, Baby Blue – Take 1 Remake (1/15/1965) Released on Bringing It All Back Home, 1965
––––––––––––––––––––––––––––––––––––––––

Number of tracks: 24
Official DR value: DR11

Samplerate: 96000 Hz
Channels: 2
Bits per sample: 24
Bitrate: 2748 kbps
Codec: FLAC
================================================================================



CD3 #01 - If You Gotta Go, Go Now – Take 1 (1/15/1965) Complete
CD3 #02 - If You Gotta Go, Go Now – Take 2 (1/15/1965) Complete
CD3 #03 - If You Gotta Go, Go Now – Take 3 (1/15/1965) Complete
CD3 #04 - If You Gotta Go, Go Now – Take 4 (1/15/1965) Released on The Bootleg Series, Vol. 1-3, 1991
CD3 #05 - It Takes a Lot to Laugh, It Takes a Train to Cry – Take 1 (6/15/1965) Complete
CD3 #06 - It Takes a Lot to Laugh, It Takes a Train to Cry – Takes 2-3 (6/15/1965) Fragments
CD3 #07 - It Takes a Lot to Laugh, It Takes a Train to Cry – Take 4 (6/15/1965) Breakdown
CD3 #08 - It Takes a Lot to Laugh, It Takes a Train to Cry – Takes 5 (6/15/1965) False Start
CD3 #09 - It Takes a Lot to Laugh, It Takes a Train to Cry – Takes 6 (6/15/1965) Breakdown
CD3 #10 - It Takes a Lot to Laugh, It Takes a Train to Cry – Take 7 (6/15/1965) Insert
CD3 #11 - It Takes a Lot to Laugh, It Takes a Train to Cry – Take 8 (6/15/1965) Complete
CD3 #12 - It Takes a Lot to Laugh, It Takes a Train to Cry – Take 9 (6/15/1965) Released on The Bootleg Series, Vol. 7, 2005
CD3 #13 - Sitting on a Barbed-Wire Fence – Take 1 (6/15/1965) Rehearsal and Breakdown
CD3 #14 - Sitting on a Barbed-Wire Fence – Take 2 (6/15/1965) Complete
CD3 #15 - Sitting on a Barbed-Wire Fence – Take 3 (6/15/1965) Released on The Bootleg Series, Vol. 1-3, 1991
CD3 #16 - Sitting on a Barbed-Wire Fence – Take 2 (6/15/1965) Edited Version. Complete
CD3 #17 - It Takes a Lot to Laugh, It Takes a Train to Cry – Take 1 Remake (6/15/1965) Released on The Bootleg Series, Vol. 1-3, 1991
CD3 #18 - Sitting on a Barbed-Wire Fence – Takes 4-5 (6/15/1965) False Starts
CD3 #19 - Sitting on a Barbed-Wire Fence – Take 6 (6/15/1965) Complete
CD3 #20 - Like a Rolling Stone – Takes 1-3 (6/15/1965) Rehearsal
CD3 #21 - Like a Rolling Stone – Take 4 (6/15/1965) Rehearsal. Partially Released on The Bootleg Series Vol. 1-3, 1991
CD3 #22 - Like a Rolling Stone – Take 5 (6/15/1965) Breakdown

Analyzed: Bob Dylan / The Bootleg Series, Vol. 12: The Cutting Edge 1965-1966 (Collector's Edition) (24/96) [Disc 3]
––––––––––––––––––––––––––––––––––––––––

DR Peak RMS Duration Track
––––––––––––––––––––––––––––––––––––––––
DR8 -1.93 dB -11.46 dB 2:51 01-If You Gotta Go, Go Now – Take 1 (1/15/1965) Complete
DR10 -0.72 dB -11.99 dB 2:51 02-If You Gotta Go, Go Now – Take 2 (1/15/1965) Complete
DR9 -2.53 dB -13.68 dB 3:12 03-If You Gotta Go, Go Now – Take 3 (1/15/1965) Complete
DR9 -2.41 dB -12.77 dB 2:56 04-If You Gotta Go, Go Now – Take 4 (1/15/1965) Released on The Bootleg Series, Vol. 1-3, 1991
DR10 -0.71 dB -12.15 dB 2:41 05-It Takes a Lot to Laugh, It Takes a Train to Cry – Take 1 (6/15/1965) Complete
DR11 -4.92 dB -25.86 dB 0:18 06-It Takes a Lot to Laugh, It Takes a Train to Cry – Takes 2-3 (6/15/1965) Fragments
DR10 -0.59 dB -12.67 dB 1:54 07-It Takes a Lot to Laugh, It Takes a Train to Cry – Take 4 (6/15/1965) Breakdown
DR14 -4.14 dB -23.52 dB 0:17 08-It Takes a Lot to Laugh, It Takes a Train to Cry – Takes 5 (6/15/1965) False Start
DR9 -1.80 dB -13.08 dB 1:47 09-It Takes a Lot to Laugh, It Takes a Train to Cry – Takes 6 (6/15/1965) Breakdown
DR8 -2.47 dB -12.34 dB 0:57 10-It Takes a Lot to Laugh, It Takes a Train to Cry – Take 7 (6/15/1965) Insert
DR9 -1.43 dB -12.24 dB 3:29 11-It Takes a Lot to Laugh, It Takes a Train to Cry – Take 8 (6/15/1965) Complete
DR8 -2.97 dB -12.04 dB 3:43 12-It Takes a Lot to Laugh, It Takes a Train to Cry – Take 9 (6/15/1965) Released on The Bootleg Series, Vol. 7, 2005
DR9 -3.21 dB -16.20 dB 1:26 13-Sitting on a Barbed-Wire Fence – Take 1 (6/15/1965) Rehearsal and Breakdown
DR9 -0.71 dB -11.49 dB 4:00 14-Sitting on a Barbed-Wire Fence – Take 2 (6/15/1965) Complete
DR10 -1.52 dB -14.13 dB 5:30 15-Sitting on a Barbed-Wire Fence – Take 3 (6/15/1965) Released on The Bootleg Series, Vol. 1-3, 1991
DR9 -1.52 dB -12.57 dB 3:55 16-Sitting on a Barbed-Wire Fence – Take 2 (6/15/1965) Edited Version. Complete
DR9 -0.71 dB -11.19 dB 3:30 17-It Takes a Lot to Laugh, It Takes a Train to Cry – Take 1 Remake (6/15/1965) Released on The Bootleg Series, Vol. 1-3, 1991
DR13 -1.67 dB -21.94 dB 0:42 18-Sitting on a Barbed-Wire Fence – Takes 4-5 (6/15/1965) False Starts
DR10 -1.61 dB -13.67 dB 4:53 19-Sitting on a Barbed-Wire Fence – Take 6 (6/15/1965) Complete
DR11 -3.24 dB -20.34 dB 5:51 20-Like a Rolling Stone – Takes 1-3 (6/15/1965) Rehearsal
DR12 -1.88 dB -19.32 dB 2:57 21-Like a Rolling Stone – Take 4 (6/15/1965) Rehearsal. Partially Released on The Bootleg Series Vol. 1-3, 1991
DR11 -1.95 dB -15.33 dB 2:15 22-Like a Rolling Stone – Take 5 (6/15/1965) Breakdown
––––––––––––––––––––––––––––––––––––––––

Number of tracks: 22
Official DR value: DR10

Samplerate: 96000 Hz
Channels: 2
Bits per sample: 24
Bitrate: 2799 kbps
Codec: FLAC
================================================================================



CD4 #01 - Like a Rolling Stone – Rehearsal Remake (6/16/1965) Rehearsal
CD4 #02 - Like a Rolling Stone – Take 1 Remake (6/16/1965) Rehearsal
CD4 #03 - Like a Rolling Stone – Takes 2-3 Remake (6/16/1965) False Starts
CD4 #04 - Like a Rolling Stone – Take 4 Remake (6/16/1965) Released on Highway 61 Revisited, 1965
CD4 #05 - Like a Rolling Stone – Take 5 Remake (6/16/1965) Rehearsal
CD4 #06 - Like a Rolling Stone – Take 6 Remake (6/16/1965) False Start
CD4 #07 - Like a Rolling Stone – Take 8 Remake (6/16/1965) Breakdown
CD4 #08 - Like a Rolling Stone – Takes 9-10 Remake (6/16/1965) False Starts
CD4 #09 - Like a Rolling Stone – Take 11 Remake (6/16/1965) Complete
CD4 #10 - Like a Rolling Stone – Take 12 Remake (6/16/1965) False Start
CD4 #11 - Like a Rolling Stone – Take 13 Remake (6/16/1965) Breakdown
CD4 #12 - Like a Rolling Stone – Take 14 Remake (6/16/1965) False Start
CD4 #13 - Like a Rolling Stone – Take 15 Remake (6/16/1965) Breakdown
CD4 #14 - Like a Rolling Stone – Master Take (6/16/1965), Guitar
CD4 #15 - Like a Rolling Stone – Master Take (6/16/1965), Vocals, Guitar (BD)
CD4 #16 - Like a Rolling Stone – Master Take (6/16/1965), Piano, Bass
CD4 #17 - Like a Rolling Stone – Master Take (6/16/1965), Drums, Organ

Analyzed: Bob Dylan / The Bootleg Series, Vol. 12: The Cutting Edge 1965-1966 (Collector's Edition) (24/96) [Disc 4]
––––––––––––––––––––––––––––––––––––––––

DR Peak RMS Duration Track
––––––––––––––––––––––––––––––––––––––––
DR12 -2.45 dB -18.62 dB 2:34 01-Like a Rolling Stone – Rehearsal Remake (6/16/1965) Rehearsal
DR11 -2.05 dB -15.56 dB 1:58 02-Like a Rolling Stone – Take 1 Remake (6/16/1965) Rehearsal
DR12 -2.49 dB -16.52 dB 0:35 03-Like a Rolling Stone – Takes 2-3 Remake (6/16/1965) False Starts
DR9 -1.41 dB -12.80 dB 6:29 04-Like a Rolling Stone – Take 4 Remake (6/16/1965) Released on Highway 61 Revisited, 1965
DR11 -1.55 dB -16.26 dB 1:55 05-Like a Rolling Stone – Take 5 Remake (6/16/1965) Rehearsal
DR12 -1.73 dB -16.78 dB 0:21 06-Like a Rolling Stone – Take 6 Remake (6/16/1965) False Start
DR9 -1.78 dB -12.65 dB 4:19 07-Like a Rolling Stone – Take 8 Remake (6/16/1965) Breakdown
DR13 -1.70 dB -19.30 dB 0:35 08-Like a Rolling Stone – Takes 9-10 Remake (6/16/1965) False Starts
DR10 -1.45 dB -13.60 dB 5:57 09-Like a Rolling Stone – Take 11 Remake (6/16/1965) Complete
DR15 -2.35 dB -18.49 dB 0:10 10-Like a Rolling Stone – Take 12 Remake (6/16/1965) False Start
DR9 -1.51 dB -13.55 dB 1:37 11-Like a Rolling Stone – Take 13 Remake (6/16/1965) Breakdown
DR12 -1.68 dB -17.99 dB 0:24 12-Like a Rolling Stone – Take 14 Remake (6/16/1965) False Start
DR10 -1.20 dB -13.02 dB 3:09 13-Like a Rolling Stone – Take 15 Remake (6/16/1965) Breakdown
DR7 -5.83 dB -16.41 dB 6:25 14-Like a Rolling Stone – Master Take (6/16/1965), Guitar
DR9 -4.10 dB -15.79 dB 6:25 15-Like a Rolling Stone – Master Take (6/16/1965), Vocals, Guitar (BD)
DR9 -4.48 dB -16.15 dB 6:25 16-Like a Rolling Stone – Master Take (6/16/1965), Piano, Bass
DR12 -2.79 dB -17.63 dB 6:27 17-Like a Rolling Stone – Master Take (6/16/1965), Drums, Organ
––––––––––––––––––––––––––––––––––––––––

Number of tracks: 17
Official DR value: DR11

Samplerate: 96000 Hz
Channels: 2
Bits per sample: 24
Bitrate: 2690 kbps
Codec: FLAC
================================================================================



CD5 #01 - It Takes a Lot to Laugh, It Takes a Train to Cry – Take 1 (7/29/1965) Breakdown
CD5 #02 - It Takes a Lot to Laugh, It Takes a Train to Cry – Take 2 (7/29/1965) False Start
CD5 #03 - It Takes a Lot to Laugh, It Takes a Train to Cry – Take 3 (7/29/1965) Incomplete
CD5 #04 - Tombstone Blues – Take 1 (7/29/1965) Complete
CD5 #05 - Tombstone Blues – Takes 2-3 (7/29/1965) False Starts
CD5 #06 - Tombstone Blues – Take 4 (7/29/1965) Complete
CD5 #07 - Tombstone Blues – Takes 5-7 (7/29/1965) False Starts, Rehearsal
CD5 #08 - Tombstone Blues – Take 9 (7/29/1965) Released on The Bootleg Series, Vol. 7, 2005
CD5 #09 - Tombstone Blues – Take 10 (7/29/1965) False Start
CD5 #10 - Tombstone Blues – Take 11 (7/29/1965) Breakdown
CD5 #11 - Tombstone Blues – Take 12 (7/29/1965) Released on Highway 61 Revisited, 1965
CD5 #12 - It Takes a Lot to Laugh, It Takes a Train to Cry – Take 1 (7/29/1965) Complete
CD5 #13 - It Takes a Lot to Laugh, It Takes a Train to Cry – Take 2 (7/29/1965) False Start
CD5 #14 - It Takes a Lot to Laugh, It Takes a Train to Cry – Take 3 (7/29/1965) Complete
CD5 #15 - It Takes a Lot to Laugh, It Takes a Train to Cry – Take 4 (7/29/1965) Released on Highway 61 Revisited, 1965
CD5 #16 - Positively 4th Street – Takes 1-3 (7/29/1965) False Starts
CD5 #17 - Positively 4th Street – Take 4 (7/29/1965) Complete
CD5 #18 - Positively 4th Street – Take 5 (7/29/1965) Complete
CD5 #19 - Positively 4th Street – Take 6 (7/29/1965) Breakdown
CD5 #20 - Positively 4th Street – Take 7 (7/29/1965) Breakdown
CD5 #21 - Positively 4th Street – Take 8 (7/29/1965) Breakdown
CD5 #22 - Positively 4th Street – Take 10 (7/29/1965) Breakdown
CD5 #23 - Positively 4th Street – Take 12 (7/29/1965) Released As a Single, 1965

Analyzed: Bob Dylan / The Bootleg Series, Vol. 12: The Cutting Edge 1965-1966 (Collector's Edition) (24/96) [Disc 5]
––––––––––––––––––––––––––––––––––––––––

DR Peak RMS Duration Track
––––––––––––––––––––––––––––––––––––––––
DR10 -1.49 dB -13.40 dB 1:52 01-It Takes a Lot to Laugh, It Takes a Train to Cry – Take 1 (7/29/1965) Breakdown
DR10 -3.17 dB -20.34 dB 0:24 02-It Takes a Lot to Laugh, It Takes a Train to Cry – Take 2 (7/29/1965) False Start
DR10 -0.60 dB -13.14 dB 3:13 03-It Takes a Lot to Laugh, It Takes a Train to Cry – Take 3 (7/29/1965) Incomplete
DR11 -1.30 dB -13.93 dB 7:30 04-Tombstone Blues – Take 1 (7/29/1965) Complete
DR12 -1.66 dB -19.89 dB 1:16 05-Tombstone Blues – Takes 2-3 (7/29/1965) False Starts
DR11 -1.49 dB -14.16 dB 6:59 06-Tombstone Blues – Take 4 (7/29/1965) Complete
DR10 -1.58 dB -14.86 dB 1:54 07-Tombstone Blues – Takes 5-7 (7/29/1965) False Starts, Rehearsal
DR10 -3.21 dB -14.34 dB 3:37 08-Tombstone Blues – Take 9 (7/29/1965) Released on The Bootleg Series, Vol. 7, 2005
DR9 -4.83 dB -24.71 dB 0:24 09-Tombstone Blues – Take 10 (7/29/1965) False Start
DR11 -1.03 dB -13.69 dB 3:15 10-Tombstone Blues – Take 11 (7/29/1965) Breakdown
DR11 -0.89 dB -13.40 dB 6:13 11-Tombstone Blues – Take 12 (7/29/1965) Released on Highway 61 Revisited, 1965
DR11 -0.98 dB -15.31 dB 3:51 12-It Takes a Lot to Laugh, It Takes a Train to Cry – Take 1 (7/29/1965) Complete
DR11 -1.73 dB -18.44 dB 0:24 13-It Takes a Lot to Laugh, It Takes a Train to Cry – Take 2 (7/29/1965) False Start
DR9 -2.99 dB -14.78 dB 3:42 14-It Takes a Lot to Laugh, It Takes a Train to Cry – Take 3 (7/29/1965) Complete
DR11 -2.19 dB -16.69 dB 4:14 15-It Takes a Lot to Laugh, It Takes a Train to Cry – Take 4 (7/29/1965) Released on Highway 61 Revisited, 1965
DR14 -2.33 dB -21.46 dB 0:57 16-Positively 4th Street – Takes 1-3 (7/29/1965) False Starts
DR10 -1.53 dB -13.19 dB 4:24 17-Positively 4th Street – Take 4 (7/29/1965) Complete
DR10 -1.73 dB -13.47 dB 4:25 18-Positively 4th Street – Take 5 (7/29/1965) Complete
DR11 -1.63 dB -15.42 dB 0:53 19-Positively 4th Street – Take 6 (7/29/1965) Breakdown
DR10 -1.48 dB -14.19 dB 1:13 20-Positively 4th Street – Take 7 (7/29/1965) Breakdown
DR9 -1.50 dB -12.87 dB 2:56 21-Positively 4th Street – Take 8 (7/29/1965) Breakdown
DR10 -1.53 dB -13.58 dB 1:02 22-Positively 4th Street – Take 10 (7/29/1965) Breakdown
DR10 -1.38 dB -12.69 dB 4:22 23-Positively 4th Street – Take 12 (7/29/1965) Released As a Single, 1965
––––––––––––––––––––––––––––––––––––––––

Number of tracks: 23
Official DR value: DR11

Samplerate: 96000 Hz
Channels: 2
Bits per sample: 24
Bitrate: 2907 kbps
Codec: FLAC
================================================================================



CD6 #01 - Desolation Row – Take 1 (7/29/1965) Released on The Bootleg Series Vol. 7, 2005
CD6 #02 - From a Buick 6 – Take 1 (7/30/1965) False Start
CD6 #03 - From a Buick 6 – Take 2 (7/30/1965) False Start
CD6 #04 - From a Buick 6 - Take 4 (7/30/1965) Accidentally released on the first pressing of Highway 61 Revisited, 1965
CD6 #05 - From a Buick 6 – Take 5 (7/30/1965) Released on Highway 61 Revisited, 1965
CD6 #06 - Can You Please Crawl Out Your Window? – Takes 1-4 (7/30/1965) False Starts
CD6 #07 - Can You Please Crawl Out Your Window? – Take 1 (7/30/1965) Complete
CD6 #08 - Can You Please Crawl Out Your Window? – Take 2 (7/30/1965) False Start
CD6 #09 - Can You Please Crawl Out Your Window? – Take 3 (7/30/1965) Complete
CD6 #10 - Can You Please Crawl Out Your Window? – Take 4 (7/30/1965) False Start
CD6 #11 - Can You Please Crawl Out Your Window? – Take 5 (7/30/1965) Complete
CD6 #12 - Can You Please Crawl Out Your Window? – Take 6 (7/30/1965) Rehearsal/False Start
CD6 #13 - Can You Please Crawl Out Your Window? – Take 7 (7/30/1965) False Start
CD6 #14 - Can You Please Crawl Out Your Window? – Take 8 (7/30/1965) False Start
CD6 #15 - Can You Please Crawl Out Your Window? – Takes 10-11 (7/30/1965) False Starts
CD6 #16 - Can You Please Crawl Out Your Window? – Take 12 (7/30/1965) Complete
CD6 #17 - Can You Please Crawl Out Your Window? – Take 14 (7/30/1965) Breakdown
CD6 #18 - Can You Please Crawl Out Your Window? – Take 15 (7/30/1965) Breakdown
CD6 #19 - Can You Please Crawl Out Your Window? – Take 17 (7/30/1965) Accidentally released as B-Side of first pressing of Positively 4th Street single
CD6 #20 - Highway 61 Revisited – Take 1 (8/02/1965) False Start
CD6 #21 - Highway 61 Revisited – Take 2 (8/02/1965) False Start
CD6 #22 - Highway 61 Revisited – Take 3 (8/02/1965) Complete
CD6 #23 - Highway 61 Revisited – Take 4 (8/02/1965) False Start
CD6 #24 - Highway 61 Revisited – Take 5 (8/02/1965) Complete
CD6 #25 - Highway 61 Revisited – Take 5 (Mis-Slate) (8/02/1965) Complete
CD6 #26 - Highway 61 Revisited – Take 6 (8/02/1965) Released on The Bootleg Series, Vol. 7, 2005
CD6 #27 - Highway 61 Revisited – Take 7 (8/02/1965) False Start
CD6 #28 - Highway 61 Revisited – Take 8 (8/02/1965) False Start
CD6 #29 - Highway 61 Revisited – Take 9 (8/02/1965) Released on Highway 61 Revisited, 1965

Analyzed: Bob Dylan / The Bootleg Series, Vol. 12: The Cutting Edge 1965-1966 (Collector's Edition) (24/96) [Disc 6]
––––––––––––––––––––––––––––––––––––––––

DR Peak RMS Duration Track
––––––––––––––––––––––––––––––––––––––––
DR13 -2.38 dB -17.81 dB 11:48 01-Desolation Row – Take 1 (7/29/1965) Released on The Bootleg Series Vol. 7, 2005
DR10 -0.72 dB -14.44 dB 0:24 02-From a Buick 6 – Take 1 (7/30/1965) False Start
DR13 -9.18 dB -30.74 dB 0:17 03-From a Buick 6 – Take 2 (7/30/1965) False Start
DR10 -1.22 dB -13.17 dB 3:12 04-From a Buick 6 - Take 4 (7/30/1965) Accidentally released on the first pressing of Highway 61 Revisited, 1965
DR10 -1.48 dB -13.02 dB 3:42 05-From a Buick 6 – Take 5 (7/30/1965) Released on Highway 61 Revisited, 1965
DR13 -3.05 dB -19.69 dB 1:41 06-Can You Please Crawl Out Your Window? – Takes 1-4 (7/30/1965) False Starts
DR11 -1.50 dB -14.23 dB 4:38 07-Can You Please Crawl Out Your Window? – Take 1 (7/30/1965) Complete
DR11 -1.55 dB -18.36 dB 0:36 08-Can You Please Crawl Out Your Window? – Take 2 (7/30/1965) False Start
DR10 -1.46 dB -13.03 dB 4:10 09-Can You Please Crawl Out Your Window? – Take 3 (7/30/1965) Complete
DR11 -1.54 dB -15.41 dB 0:26 10-Can You Please Crawl Out Your Window? – Take 4 (7/30/1965) False Start
DR10 -1.46 dB -12.80 dB 4:09 11-Can You Please Crawl Out Your Window? – Take 5 (7/30/1965) Complete
DR14 -1.89 dB -21.23 dB 1:02 12-Can You Please Crawl Out Your Window? – Take 6 (7/30/1965) Rehearsal/False Start
DR11 -1.94 dB -15.20 dB 0:27 13-Can You Please Crawl Out Your Window? – Take 7 (7/30/1965) False Start
DR13 -1.16 dB -16.70 dB 0:43 14-Can You Please Crawl Out Your Window? – Take 8 (7/30/1965) False Start
DR12 -1.54 dB -19.64 dB 0:50 15-Can You Please Crawl Out Your Window? – Takes 10-11 (7/30/1965) False Starts
DR11 -1.50 dB -13.55 dB 3:48 16-Can You Please Crawl Out Your Window? – Take 12 (7/30/1965) Complete
DR12 -1.30 dB -15.92 dB 1:06 17-Can You Please Crawl Out Your Window? – Take 14 (7/30/1965) Breakdown
DR11 -1.27 dB -14.46 dB 2:49 18-Can You Please Crawl Out Your Window? – Take 15 (7/30/1965) Breakdown
DR10 -0.92 dB -13.08 dB 4:01 19-Can You Please Crawl Out Your Window? – Take 17 (7/30/1965) Accidentally released as B-Side of first pressing of Positively 4th Street single
DR11 -2.27 dB -19.21 dB 0:23 20-Highway 61 Revisited – Take 1 (8/02/1965) False Start
DR15 -2.74 dB -25.90 dB 0:28 21-Highway 61 Revisited – Take 2 (8/02/1965) False Start
DR9 -0.89 dB -11.07 dB 3:30 22-Highway 61 Revisited – Take 3 (8/02/1965) Complete
DR13 -7.02 dB -25.19 dB 0:08 23-Highway 61 Revisited – Take 4 (8/02/1965) False Start
DR9 -1.91 dB -12.07 dB 3:41 24-Highway 61 Revisited – Take 5 (8/02/1965) Complete
DR11 -1.70 dB -14.00 dB 3:19 25-Highway 61 Revisited – Take 5 (Mis-Slate) (8/02/1965) Complete
DR11 -1.82 dB -14.22 dB 3:39 26-Highway 61 Revisited – Take 6 (8/02/1965) Released on The Bootleg Series, Vol. 7, 2005
DR10 -3.97 dB -16.99 dB 0:35 27-Highway 61 Revisited – Take 7 (8/02/1965) False Start
DR13 -1.74 dB -22.32 dB 0:27 28-Highway 61 Revisited – Take 8 (8/02/1965) False Start
DR10 -1.48 dB -12.71 dB 3:33 29-Highway 61 Revisited – Take 9 (8/02/1965) Released on Highway 61 Revisited, 1965
––––––––––––––––––––––––––––––––––––––––

Number of tracks: 29
Official DR value: DR11

Samplerate: 96000 Hz
Channels: 2
Bits per sample: 24
Bitrate: 2877 kbps
Codec: FLAC
================================================================================



CD7 #01 - Just Like Tom Thumb’s Blues – Take 1 (8/02/1965) Breakdown
CD7 #02 - Just Like Tom Thumb’s Blues – Take 3 (8/02/1965) Complete
CD7 #03 - Just Like Tom Thumb’s Blues – Take 4 (8/02/1965) Rehearsal
CD7 #04 - Just Like Tom Thumb’s Blues – Take 5 (8/02/1965) Released on The Bootleg Series Vol. 7, 2005
CD7 #05 - Just Like Tom Thumb’s Blues – Takes 9-10 (8/02/1965) Breakdown
CD7 #06 - Just Like Tom Thumb’s Blues – Takes 11-12 (8/02/1965) False Starts
CD7 #07 - Just Like Tom Thumb’s Blues – Take 13 (8/02/1965) Complete
CD7 #08 - Just Like Tom Thumb’s Blues – Takes 14-15 (8/02/1965) False Starts
CD7 #09 - Just Like Tom Thumb’s Blues – Take 16 (8/02/1965) Released on Highway 61 Revisited, 1965
CD7 #10 - Queen Jane Approximately – Take 1 (8/02/1965) Rehearsal
CD7 #11 - Queen Jane Approximately – Take 2 (8/02/1965) Complete
CD7 #12 - Queen Jane Approximately – Take 3 (8/02/1965) False Start
CD7 #13 - Queen Jane Approximately – Take 4 (8/02/1965) False Start
CD7 #14 - Queen Jane Approximately – Take 5 (8/02/1965) Complete
CD7 #15 - Queen Jane Approximately – Take 6 (8/02/1965) Complete
CD7 #16 - Queen Jane Approximately – Take 7 (8/02/1965) Released on Highway 61 Revisited, 1965
CD7 #17 - Ballad of a Thin Man – Take 1 (8/02/1965) False Start
CD7 #18 - Ballad of a Thin Man – Take 2 (8/02/1965) Breakdown
CD7 #19 - Ballad of a Thin Man – Take 3 (8/02/1965) Released on Highway 61 Revisited, 1965
CD7 #20 - Ballad of a Thin Man – Take 4 (8/02/1965) Insert

Analyzed: Bob Dylan / The Bootleg Series, Vol. 12: The Cutting Edge 1965-1966 (Collector's Edition) (24/96) [Disc 7]
––––––––––––––––––––––––––––––––––––––––

DR Peak RMS Duration Track
––––––––––––––––––––––––––––––––––––––––
DR10 -1.77 dB -15.60 dB 1:10 01-Just Like Tom Thumb’s Blues – Take 1 (8/02/1965) Breakdown
DR10 -2.42 dB -14.10 dB 5:40 02-Just Like Tom Thumb’s Blues – Take 3 (8/02/1965) Complete
DR12 -6.06 dB -21.95 dB 0:20 03-Just Like Tom Thumb’s Blues – Take 4 (8/02/1965) Rehearsal
DR11 -1.34 dB -14.46 dB 5:45 04-Just Like Tom Thumb’s Blues – Take 5 (8/02/1965) Released on The Bootleg Series Vol. 7, 2005
DR10 -2.35 dB -15.52 dB 1:14 05-Just Like Tom Thumb’s Blues – Takes 9-10 (8/02/1965) Breakdown
DR11 -5.39 dB -21.07 dB 0:24 06-Just Like Tom Thumb’s Blues – Takes 11-12 (8/02/1965) False Starts
DR10 -1.99 dB -13.78 dB 5:29 07-Just Like Tom Thumb’s Blues – Take 13 (8/02/1965) Complete
DR13 -3.90 dB -22.29 dB 0:43 08-Just Like Tom Thumb’s Blues – Takes 14-15 (8/02/1965) False Starts
DR11 -1.48 dB -14.10 dB 5:35 09-Just Like Tom Thumb’s Blues – Take 16 (8/02/1965) Released on Highway 61 Revisited, 1965
DR14 -4.06 dB -23.75 dB 0:24 10-Queen Jane Approximately – Take 1 (8/02/1965) Rehearsal
DR11 -1.14 dB -14.02 dB 5:19 11-Queen Jane Approximately – Take 2 (8/02/1965) Complete
DR11 -2.03 dB -17.80 dB 0:45 12-Queen Jane Approximately – Take 3 (8/02/1965) False Start
DR14 -5.49 dB -23.15 dB 0:08 13-Queen Jane Approximately – Take 4 (8/02/1965) False Start
DR10 -1.44 dB -12.97 dB 6:03 14-Queen Jane Approximately – Take 5 (8/02/1965) Complete
DR11 -0.71 dB -13.72 dB 5:29 15-Queen Jane Approximately – Take 6 (8/02/1965) Complete
DR11 -0.71 dB -13.45 dB 5:25 16-Queen Jane Approximately – Take 7 (8/02/1965) Released on Highway 61 Revisited, 1965
DR12 -2.44 dB -19.44 dB 0:42 17-Ballad of a Thin Man – Take 1 (8/02/1965) False Start
DR12 -1.55 dB -15.24 dB 3:53 18-Ballad of a Thin Man – Take 2 (8/02/1965) Breakdown
DR12 -0.89 dB -15.68 dB 5:57 19-Ballad of a Thin Man – Take 3 (8/02/1965) Released on Highway 61 Revisited, 1965
DR12 -2.22 dB -16.34 dB 1:00 20-Ballad of a Thin Man – Take 4 (8/02/1965) Insert
––––––––––––––––––––––––––––––––––––––––

Number of tracks: 20
Official DR value: DR11

Samplerate: 96000 Hz
Channels: 2
Bits per sample: 24
Bitrate: 2724 kbps
Codec: FLAC
================================================================================



CD8 #01 - Desolation Row – Takes 1-2 Remake (8/02/1965) False Start/Breakdown
CD8 #02 - Desolation Row – Take 3 Remake (8/02/1965) Breakdown
CD8 #03 - Desolation Row – Take 4 Remake (8/02/1965) False Start
CD8 #04 - Desolation Row – Take 5 Remake (8/02/1965) Complete
CD8 #05 - Tombstone Blues – Take 1 (8/03/1965) Complete. Vocal Overdub
CD8 #06 - Tombstone Blues – Take 2 (8/03/1965) Complete. Vocal Overdub
CD8 #07 - Tombstone Blues – Take 3 (8/03/1965) Complete. Vocal Overdub
CD8 #08 - Desolation Row – Take 1 (8/04/1965) Rehearsal
CD8 #09 - Desolation Row – Take 2 (8/04/1965) Rehearsal
CD8 #10 - Desolation Row – Take 1 (8/04/1965) Complete (With Insert)
CD8 #11 - Desolation Row – Take 5 (8/04/1965) Complete master without acoustic guitar overdub. Released on Highway 61 Revisited, 1965
CD8 #12 - Desolation Row – Take 6 (8/04/1965) Guitar Overdub
CD8 #13 - Desolation Row – Take 7 (8/04/1965) Guitar Overdub
CD8 #14 - Tombstone Blues – Take 1 (8/04/1965) Harmonica Overdub
CD8 #15 - Medicine Sunday – Take 1 (10/05/1965) Incomplete
CD8 #16 - Medicine Sunday – Take 2 (10/05/1965) Incomplete
CD8 #17 - Jet Pilot – Take 1 (10/05/1965) Released on Biograph, 1985
CD8 #18 - I Wanna Be Your Lover – (10/05/1965) Rehearsal
CD8 #19 - Can You Please Crawl Out Your Window? – Take 1 (10/05/1965) Fragment
CD8 #20 - Can You Please Crawl Out Your Window? – Take 2 (10/05/1965) Fragment

Analyzed: Bob Dylan / The Bootleg Series, Vol. 12: The Cutting Edge 1965-1966 (Collector's Edition) (24/96) [Disc 8]
––––––––––––––––––––––––––––––––––––––––

DR Peak RMS Duration Track
––––––––––––––––––––––––––––––––––––––––
DR12 -2.47 dB -19.75 dB 0:42 01-Desolation Row – Takes 1-2 Remake (8/02/1965) False Start/Breakdown
DR12 -2.00 dB -15.56 dB 1:56 02-Desolation Row – Take 3 Remake (8/02/1965) Breakdown
DR10 -4.96 dB -20.47 dB 0:18 03-Desolation Row – Take 4 Remake (8/02/1965) False Start
DR12 -1.48 dB -14.57 dB 10:52 04-Desolation Row – Take 5 Remake (8/02/1965) Complete
DR12 -0.72 dB -14.22 dB 2:48 05-Tombstone Blues – Take 1 (8/03/1965) Complete. Vocal Overdub
DR12 -1.54 dB -14.44 dB 6:06 06-Tombstone Blues – Take 2 (8/03/1965) Complete. Vocal Overdub
DR12 -1.52 dB -14.64 dB 6:06 07-Tombstone Blues – Take 3 (8/03/1965) Complete. Vocal Overdub
DR13 -2.32 dB -17.48 dB 1:12 08-Desolation Row – Take 1 (8/04/1965) Rehearsal
DR12 -2.75 dB -17.29 dB 2:01 09-Desolation Row – Take 2 (8/04/1965) Rehearsal
DR13 -1.22 dB -16.04 dB 11:18 10-Desolation Row – Take 1 (8/04/1965) Complete (With Insert)
DR13 -0.90 dB -16.00 dB 11:18 11-Desolation Row – Take 5 (8/04/1965) Complete master without acoustic guitar overdub. Released on Highway 61 Revisited, 1965
DR12 -2.01 dB -15.48 dB 11:18 12-Desolation Row – Take 6 (8/04/1965) Guitar Overdub
DR13 -2.66 dB -17.08 dB 0:12 13-Desolation Row – Take 7 (8/04/1965) Guitar Overdub
DR11 -1.62 dB -15.19 dB 1:04 14-Tombstone Blues – Take 1 (8/04/1965) Harmonica Overdub
DR11 -1.09 dB -14.06 dB 1:02 15-Medicine Sunday – Take 1 (10/05/1965) Incomplete
DR11 -3.26 dB -15.72 dB 1:00 16-Medicine Sunday – Take 2 (10/05/1965) Incomplete
DR11 -0.24 dB -14.24 dB 1:28 17-Jet Pilot – Take 1 (10/05/1965) Released on Biograph, 1985
DR11 -1.47 dB -16.04 dB 5:33 18-I Wanna Be Your Lover – (10/05/1965) Rehearsal
DR12 -2.60 dB -16.28 dB 0:57 19-Can You Please Crawl Out Your Window? – Take 1 (10/05/1965) Fragment
DR11 -1.64 dB -15.90 dB 1:20 20-Can You Please Crawl Out Your Window? – Take 2 (10/05/1965) Fragment
––––––––––––––––––––––––––––––––––––––––

Number of tracks: 20
Official DR value: DR12

Samplerate: 96000 Hz
Channels: 2
Bits per sample: 24
Bitrate: 2753 kbps
Codec: FLAC
================================================================================



CD9 #01 - I Wanna Be Your Lover – Take 1 (10/05/1965) Fragment
CD9 #02 - I Wanna Be Your Lover – Take 1 Edit 1 (10/05/1965) Complete
CD9 #03 - I Wanna Be Your Lover – Take 1 Edit 2 (10/05/1965) Complete
CD9 #04 - I Wanna Be Your Lover – Take 2 (10/05/1965) Complete
CD9 #05 - I Wanna Be Your Lover – (10/05/1965) Rehearsal
CD9 #06 - I Wanna Be Your Lover – Take 3 10/05/1965) Complete
CD9 #07 - I Wanna Be Your Lover – Take 4 (10/05/1965) Complete
CD9 #08 - I Wanna Be Your Lover – Take 5 (10/05/1965) Complete
CD9 #09 - I Wanna Be Your Lover – Take 6 (10/05/1965) Complete
CD9 #10 - I Wanna Be Your Lover – Take 6 (Mis-Slate) (10/05/1965) Released on Biograph, 1985
CD9 #11 - Instrumental – Take 1 (10/05/1965) Fragment
CD9 #12 - Instrumental – Take 2 (10/05/1965) Complete
CD9 #13 - Visions of Johanna – Take 1 (11/30/1965) Rehearsal
CD9 #14 - Visions of Johanna – Take 2 (11/30/1965) Rehearsal
CD9 #15 - Visions of Johanna – Take 3 (11/30/1965) Rehearsal
CD9 #16 - Visions of Johanna – Take 4 (11/30/1965) Complete
CD9 #17 - Visions of Johanna – Take 5 (11/30/1965) Complete
CD9 #18 - Visions of Johanna – Take 6 (11/30/1965) Rehearsal
CD9 #19 - Visions of Johanna – Take 7 (11/30/1965) Complete
CD9 #20 - Visions of Johanna – Take 8 (11/30/1965) Released on The Bootleg Series, Vol.7, 2005

Analyzed: Bob Dylan / The Bootleg Series, Vol. 12: The Cutting Edge 1965-1966 (Collector's Edition) (24/96) [Disc 9]
––––––––––––––––––––––––––––––––––––––––

DR Peak RMS Duration Track
––––––––––––––––––––––––––––––––––––––––
DR9 -1.47 dB -12.45 dB 1:07 01-I Wanna Be Your Lover – Take 1 (10/05/1965) Fragment
DR10 -1.49 dB -12.58 dB 1:47 02-I Wanna Be Your Lover – Take 1 Edit 1 (10/05/1965) Complete
DR9 -1.47 dB -13.51 dB 2:10 03-I Wanna Be Your Lover – Take 1 Edit 2 (10/05/1965) Complete
DR8 -1.94 dB -11.74 dB 2:03 04-I Wanna Be Your Lover – Take 2 (10/05/1965) Complete
DR14 -5.08 dB -25.65 dB 1:41 05-I Wanna Be Your Lover – (10/05/1965) Rehearsal
DR8 -1.81 dB -11.84 dB 2:46 06-I Wanna Be Your Lover – Take 3 10/05/1965) Complete
DR8 -1.81 dB -11.35 dB 2:50 07-I Wanna Be Your Lover – Take 4 (10/05/1965) Complete
DR8 -1.48 dB -11.41 dB 3:37 08-I Wanna Be Your Lover – Take 5 (10/05/1965) Complete
DR9 -1.91 dB -12.50 dB 3:31 09-I Wanna Be Your Lover – Take 6 (10/05/1965) Complete
DR8 -1.93 dB -11.84 dB 3:30 10-I Wanna Be Your Lover – Take 6 (Mis-Slate) (10/05/1965) Released on Biograph, 1985
DR12 -9.61 dB -25.92 dB 0:07 11-Instrumental – Take 1 (10/05/1965) Fragment
DR10 -2.48 dB -13.52 dB 4:03 12-Instrumental – Take 2 (10/05/1965) Complete
DR11 -1.62 dB -14.87 dB 1:43 13-Visions of Johanna – Take 1 (11/30/1965) Rehearsal
DR11 -1.91 dB -16.84 dB 1:57 14-Visions of Johanna – Take 2 (11/30/1965) Rehearsal
DR10 -1.52 dB -14.26 dB 2:53 15-Visions of Johanna – Take 3 (11/30/1965) Rehearsal
DR9 -1.98 dB -12.06 dB 7:43 16-Visions of Johanna – Take 4 (11/30/1965) Complete
DR11 -0.46 dB -12.35 dB 7:41 17-Visions of Johanna – Take 5 (11/30/1965) Complete
DR9 -1.63 dB -13.85 dB 1:56 18-Visions of Johanna – Take 6 (11/30/1965) Rehearsal
DR11 -0.88 dB -13.57 dB 9:11 19-Visions of Johanna – Take 7 (11/30/1965) Complete
DR10 -1.49 dB -13.04 dB 7:03 20-Visions of Johanna – Take 8 (11/30/1965) Released on The Bootleg Series, Vol.7, 2005
––––––––––––––––––––––––––––––––––––––––

Number of tracks: 20
Official DR value: DR10

Samplerate: 96000 Hz
Channels: 2
Bits per sample: 24
Bitrate: 2849 kbps
Codec: FLAC
================================================================================



CD10 #01 - Visions of Johanna – Takes 9-12 (11/30/1965) False Starts
CD10 #02 - Visions of Johanna – Take 13 (11/30/1965) Breakdown
CD10 #03 - Visions of Johanna – Take 14 (11/30/1965) Complete
CD10 #04 - Can You Please Crawl Out Your Window? – Take 1 (11/30/1965) False Start
CD10 #05 - Can You Please Crawl Out Your Window? – Take 2 (11/30/1965) False Start, Rehearsal
CD10 #06 - Can You Please Crawl Out Your Window? – Take 3 (11/30/1965) False Start
CD10 #07 - Can You Please Crawl Out Your Window? – Take 4 (11/30/1965) False Start, Rehearsal
CD10 #08 - Can You Please Crawl Out Your Window? – Take 6 (11/30/1965) Complete
CD10 #09 - Can You Please Crawl Out Your Window? – Take 7 (11/30/1965) Breakdown
CD10 #10 - Can You Please Crawl Out Your Window? – Take 8 (11/30/1965) Complete
CD10 #11 - Can You Please Crawl Out Your Window? – Take 9 (11/30/1965) False Start
CD10 #12 - Can You Please Crawl Out Your Window? – Take 10 (11/30/1965) Released as a single in December, 1965
CD10 #13 - She’s Your Lover Now – Take 1 (1/21/1966) Breakdown
CD10 #14 - She’s Your Lover Now – Take 2 (1/21/1966) Rehearsal
CD10 #15 - She’s Your Lover Now – Take 3 (1/21/1966) Breakdown
CD10 #16 - She’s Your Lover Now – Take 4 (1/21/1966) Incomplete
CD10 #17 - She’s Your Lover Now – Take 5 (1/21/1966) Rehearsal
CD10 #18 - She’s Your Lover Now – Take 6 (1/21/1966) Complete
CD10 #19 - She’s Your Lover Now – Take 7 (1/21/1966) False Start
CD10 #20 - She’s Your Lover Now – Take 8 (1/21/1966) Rehearsal
CD10 #21 - She’s Your Lover Now – Take 9 (1/21/1966) Rehearsal
CD10 #22 - She’s Your Lover Now – Takes 10-11 (1/21/1966) Rehearsal
CD10 #23 - She’s Your Lover Now – Take 12 (1/21/1966) Rehearsal
CD10 #24 - She’s Your Lover Now – Take 13 (1/21/1966) Rehearsal

Analyzed: Bob Dylan / The Bootleg Series, Vol. 12: The Cutting Edge 1965-1966 (Collector's Edition) (24/96) [Disc 10]
––––––––––––––––––––––––––––––––––––––––

DR Peak RMS Duration Track
––––––––––––––––––––––––––––––––––––––––
DR13 -3.28 dB -21.53 dB 2:18 01-Visions of Johanna – Takes 9-12 (11/30/1965) False Starts
DR11 -2.20 dB -15.44 dB 1:31 02-Visions of Johanna – Take 13 (11/30/1965) Breakdown
DR10 -2.84 dB -14.62 dB 7:32 03-Visions of Johanna – Take 14 (11/30/1965) Complete
DR13 -4.26 dB -24.16 dB 0:12 04-Can You Please Crawl Out Your Window? – Take 1 (11/30/1965) False Start
DR10 -2.52 dB -18.00 dB 1:15 05-Can You Please Crawl Out Your Window? – Take 2 (11/30/1965) False Start, Rehearsal
DR10 -4.31 dB -20.47 dB 0:15 06-Can You Please Crawl Out Your Window? – Take 3 (11/30/1965) False Start
DR12 -1.88 dB -19.58 dB 1:34 07-Can You Please Crawl Out Your Window? – Take 4 (11/30/1965) False Start, Rehearsal
DR10 -2.07 dB -14.13 dB 3:48 08-Can You Please Crawl Out Your Window? – Take 6 (11/30/1965) Complete
DR11 -3.03 dB -16.18 dB 0:43 09-Can You Please Crawl Out Your Window? – Take 7 (11/30/1965) Breakdown
DR10 -2.40 dB -14.91 dB 3:49 10-Can You Please Crawl Out Your Window? – Take 8 (11/30/1965) Complete
DR9 -4.14 dB -20.37 dB 0:14 11-Can You Please Crawl Out Your Window? – Take 9 (11/30/1965) False Start
DR10 -1.97 dB -13.79 dB 3:57 12-Can You Please Crawl Out Your Window? – Take 10 (11/30/1965) Released as a single in December, 1965
DR12 0.00 dB -15.81 dB 3:01 13-She’s Your Lover Now – Take 1 (1/21/1966) Breakdown
DR10 -3.19 dB -17.55 dB 0:16 14-She’s Your Lover Now – Take 2 (1/21/1966) Rehearsal
DR10 -1.38 dB -15.73 dB 1:00 15-She’s Your Lover Now – Take 3 (1/21/1966) Breakdown
DR11 -1.64 dB -15.30 dB 4:45 16-She’s Your Lover Now – Take 4 (1/21/1966) Incomplete
DR12 -1.54 dB -16.31 dB 1:48 17-She’s Your Lover Now – Take 5 (1/21/1966) Rehearsal
DR11 -0.97 dB -14.07 dB 4:59 18-She’s Your Lover Now – Take 6 (1/21/1966) Complete
DR12 -1.87 dB -20.49 dB 1:19 19-She’s Your Lover Now – Take 7 (1/21/1966) False Start
DR10 -2.28 dB -17.15 dB 1:05 20-She’s Your Lover Now – Take 8 (1/21/1966) Rehearsal
DR12 -0.88 dB -18.40 dB 1:32 21-She’s Your Lover Now – Take 9 (1/21/1966) Rehearsal
DR13 -0.91 dB -18.75 dB 11:29 22-She’s Your Lover Now – Takes 10-11 (1/21/1966) Rehearsal
DR12 -1.97 dB -16.49 dB 2:52 23-She’s Your Lover Now – Take 12 (1/21/1966) Rehearsal
DR12 -1.84 dB -16.66 dB 2:56 24-She’s Your Lover Now – Take 13 (1/21/1966) Rehearsal
––––––––––––––––––––––––––––––––––––––––

Number of tracks: 24
Official DR value: DR11

Samplerate: 96000 Hz
Channels: 2
Bits per sample: 24
Bitrate: 2764 kbps
Codec: FLAC
================================================================================



CD11 #01 - She’s Your Lover Now – Take 14 (1/21/1966) Breakdown
CD11 #02 - She’s Your Lover Now – Take 15 (1/21/1966) Released on The Bootleg Series, Vol. 1-3, 1991
CD11 #03 - She’s Your Lover Now – (1/21/1966) Rehearsal
CD11 #04 - She’s Your Lover Now – Take 16 (1/21/1966) Complete
CD11 #05 - Leopard-Skin Pill-Box Hat – Take 1 (1/25/1966) Released on The Bootleg Series, Vol. 7, 2005
CD11 #06 - Leopard-Skin Pill-Box Hat – Take 2 (1/25/1966) Complete
CD11 #07 - One of Us Must Know (Sooner or Later) – Take 1 (1/25/1966) Rehearsal
CD11 #08 - One of Us Must Know (Sooner or Later) – Take 2 (1/25/1966) Rehearsal
CD11 #09 - One of Us Must Know (Sooner or Later) – Take 3 (1/25/1966) Fragment
CD11 #10 - One of Us Must Know (Sooner or Later) – Take 4 (1/25/1966) Rehearsal
CD11 #11 - One of Us Must Know (Sooner or Later) – Take 5 (1/25/1966) Rehearsal
CD11 #12 - One of Us Must Know (Sooner or Later) – Takes 6-8 (1/25/1966) Rehearsal
CD11 #13 - One of Us Must Know (Sooner or Later) – Take 9 (1/25/1966) Rehearsal
CD11 #14 - One of Us Must Know (Sooner or Later) – Takes 10-14 (1/25/1966) Rehearsal
CD11 #15 - One of Us Must Know (Sooner or Later) – Take 15 (1/25/1966) Complete
CD11 #16 - One of Us Must Know (Sooner or Later) – Takes 16-17 (1/25/1966) False Starts
CD11 #17 - One of Us Must Know (Sooner or Later) – Take 18 (1/25/1966) Complete
CD11 #18 - One of Us Must Know (Sooner or Later) – (1/25/1966) Rehearsal
CD11 #19 - One of Us Must Know (Sooner or Later) – Take 19 (1/25/1966) Complete
CD11 #20 - One of Us Must Know (Sooner or Later) – Takes 21-22 (1/25/1966) Breakdown

Analyzed: Bob Dylan / The Bootleg Series, Vol. 12: The Cutting Edge 1965-1966 (Collector's Edition) (24/96) [Disc 11]
––––––––––––––––––––––––––––––––––––––––

DR Peak RMS Duration Track
––––––––––––––––––––––––––––––––––––––––
DR12 -0.73 dB -15.51 dB 3:13 01-She’s Your Lover Now – Take 14 (1/21/1966) Breakdown
DR11 -0.44 dB -14.03 dB 6:24 02-She’s Your Lover Now – Take 15 (1/21/1966) Released on The Bootleg Series, Vol. 1-3, 1991
DR12 -2.87 dB -18.43 dB 3:55 03-She’s Your Lover Now – (1/21/1966) Rehearsal
DR12 -1.22 dB -16.91 dB 9:05 04-She’s Your Lover Now – Take 16 (1/21/1966) Complete
DR11 -1.47 dB -13.91 dB 6:24 05-Leopard-Skin Pill-Box Hat – Take 1 (1/25/1966) Released on The Bootleg Series, Vol. 7, 2005
DR11 -1.09 dB -13.78 dB 4:15 06-Leopard-Skin Pill-Box Hat – Take 2 (1/25/1966) Complete
DR12 -1.91 dB -20.63 dB 4:11 07-One of Us Must Know (Sooner or Later) – Take 1 (1/25/1966) Rehearsal
DR11 -1.74 dB -15.73 dB 2:17 08-One of Us Must Know (Sooner or Later) – Take 2 (1/25/1966) Rehearsal
DR15 -6.46 dB -25.69 dB 0:27 09-One of Us Must Know (Sooner or Later) – Take 3 (1/25/1966) Fragment
DR11 -1.39 dB -15.33 dB 1:54 10-One of Us Must Know (Sooner or Later) – Take 4 (1/25/1966) Rehearsal
DR10 -1.69 dB -14.75 dB 2:04 11-One of Us Must Know (Sooner or Later) – Take 5 (1/25/1966) Rehearsal
DR11 -2.05 dB -16.74 dB 1:43 12-One of Us Must Know (Sooner or Later) – Takes 6-8 (1/25/1966) Rehearsal
DR11 -1.64 dB -17.25 dB 2:56 13-One of Us Must Know (Sooner or Later) – Take 9 (1/25/1966) Rehearsal
DR14 -2.31 dB -21.19 dB 2:45 14-One of Us Must Know (Sooner or Later) – Takes 10-14 (1/25/1966) Rehearsal
DR12 -1.79 dB -16.24 dB 5:52 15-One of Us Must Know (Sooner or Later) – Take 15 (1/25/1966) Complete
DR12 -2.09 dB -19.96 dB 0:36 16-One of Us Must Know (Sooner or Later) – Takes 16-17 (1/25/1966) False Starts
DR10 -1.45 dB -14.23 dB 5:48 17-One of Us Must Know (Sooner or Later) – Take 18 (1/25/1966) Complete
DR13 -1.73 dB -21.21 dB 1:50 18-One of Us Must Know (Sooner or Later) – (1/25/1966) Rehearsal
DR10 -1.88 dB -13.58 dB 5:11 19-One of Us Must Know (Sooner or Later) – Take 19 (1/25/1966) Complete
DR10 -0.72 dB -13.79 dB 1:51 20-One of Us Must Know (Sooner or Later) – Takes 21-22 (1/25/1966) Breakdown
––––––––––––––––––––––––––––––––––––––––

Number of tracks: 20
Official DR value: DR12

Samplerate: 96000 Hz
Channels: 2
Bits per sample: 24
Bitrate: 2855 kbps
Codec: FLAC
================================================================================



CD12 #01 - One of Us Must Know (Sooner or Later) – Take 23 (1/25/1966) Complete
CD12 #02 - One of Us Must Know (Sooner or Later) – Take 24 (1/25/1966) Released on Blonde on Blonde, 1966
CD12 #03 - One of Us Must Know (Sooner or Later) – (1/25/1966) Master Take, Guitar (BD) and Organ
CD12 #04 - One of Us Must Know (Sooner or Later) – (1/25/1966) Master Take, Vocal
CD12 #05 - One of Us Must Know (Sooner or Later) – (1/25/1966) Master Take, Piano and Drums
CD12 #06 - One of Us Must Know (Sooner or Later) – (1/25/1966) Master Take, Guitar and Bass
CD12 #07 - Lunatic Princess – Take 1 (1/27/1966) Incomplete
CD12 #08 - Leopard-Skin Pill-Box Hat – Takes 1-2 (1/27/1966) False Start, Incomplete
CD12 #09 - Leopard-Skin Pill-Box Hat – (1/27/1966) Insert
CD12 #10 - I’ll Keep It with Mine – (No Date Listed) Rehearsal. Partially Released on The Bootleg Series, Vol.1-3, 1991
CD12 #11 - Fourth Time Around – Take 1 (2/14/1966) Rehearsal
CD12 #12 - Fourth Time Around – Take 2 (2/14/1966) Breakdown
CD12 #13 - Fourth Time Around – Takes 3-4 (2/14/1966) Rehearsal
CD12 #14 - Fourth Time Around – Take 5 (2/14/1966) Complete
CD12 #15 - Fourth Time Around – Takes 6-7 (2/14/1966) Rehearsal
CD12 #16 - Fourth Time Around – Take 8 (2/14/1966) Rehearsal
CD12 #17 - Fourth Time Around – Takes 9-10 (2/14/1966) False Starts

Analyzed: Bob Dylan / The Bootleg Series, Vol. 12: The Cutting Edge 1965-1966 (Collector's Edition) (24/96) [Disc 12]
––––––––––––––––––––––––––––––––––––––––

DR Peak RMS Duration Track
––––––––––––––––––––––––––––––––––––––––
DR11 -1.54 dB -15.47 dB 5:11 01-One of Us Must Know (Sooner or Later) – Take 23 (1/25/1966) Complete
DR10 -1.90 dB -15.19 dB 4:59 02-One of Us Must Know (Sooner or Later) – Take 24 (1/25/1966) Released on Blonde on Blonde, 1966
DR8 -7.57 dB -18.93 dB 4:59 03-One of Us Must Know (Sooner or Later) – (1/25/1966) Master Take, Guitar (BD) and Organ
DR8 -7.39 dB -18.03 dB 4:59 04-One of Us Must Know (Sooner or Later) – (1/25/1966) Master Take, Vocal
DR10 -5.94 dB -19.19 dB 4:59 05-One of Us Must Know (Sooner or Later) – (1/25/1966) Master Take, Piano and Drums
DR11 -5.24 dB -19.15 dB 4:58 06-One of Us Must Know (Sooner or Later) – (1/25/1966) Master Take, Guitar and Bass
DR10 -1.82 dB -14.57 dB 1:21 07-Lunatic Princess – Take 1 (1/27/1966) Incomplete
DR12 -1.53 dB -15.98 dB 3:01 08-Leopard-Skin Pill-Box Hat – Takes 1-2 (1/27/1966) False Start, Incomplete
DR11 -1.57 dB -16.39 dB 1:06 09-Leopard-Skin Pill-Box Hat – (1/27/1966) Insert
DR14 -2.37 dB -20.05 dB 5:40 10-I’ll Keep It with Mine – (No Date Listed) Rehearsal. Partially Released on The Bootleg Series, Vol.1-3, 1991
DR13 -5.34 dB -23.51 dB 0:12 11-Fourth Time Around – Take 1 (2/14/1966) Rehearsal
DR12 -2.18 dB -16.63 dB 4:01 12-Fourth Time Around – Take 2 (2/14/1966) Breakdown
DR12 -4.87 dB -23.08 dB 0:46 13-Fourth Time Around – Takes 3-4 (2/14/1966) Rehearsal
DR12 -2.11 dB -16.07 dB 4:08 14-Fourth Time Around – Take 5 (2/14/1966) Complete
DR12 -2.19 dB -18.40 dB 3:03 15-Fourth Time Around – Takes 6-7 (2/14/1966) Rehearsal
DR13 -2.53 dB -19.03 dB 2:02 16-Fourth Time Around – Take 8 (2/14/1966) Rehearsal
DR10 -11.96 dB -28.67 dB 0:33 17-Fourth Time Around – Takes 9-10 (2/14/1966) False Starts
––––––––––––––––––––––––––––––––––––––––

Number of tracks: 17
Official DR value: DR11

Samplerate: 96000 Hz
Channels: 2
Bits per sample: 24
Bitrate: 2521 kbps
Codec: FLAC
================================================================================



CD13 #01 - Fourth Time Around – Take 11 (2/14/1966) Complete
CD13 #02 - Fourth Time Around – Takes 12-13 (2/14/1966) False Starts
CD13 #03 - Fourth Time Around – Takes 14-16 (2/14/1966) False Starts
CD13 #04 - Fourth Time Around – Takes 17-18 (2/14/1966) False Starts
CD13 #05 - Fourth Time Around – Take 19 (2/14/1966) Breakdown
CD13 #06 - Fourth Time Around – Take 19 Again (2/14/1966) Released on Blonde on Blonde, 1966
CD13 #07 - Visions of Johanna – Take 1 (2/14/1966) False Start
CD13 #08 - Visions of Johanna – Take 2 (2/14/1966) Breakdown
CD13 #09 - Visions of Johanna – Take 3 (2/14/1966) False Start
CD13 #10 - Visions of Johanna – Take 4 (2/14/1966) Released on Blonde on Blonde, 1966
CD13 #11 - Leopard-Skin Pill-Box Hat – Takes 1-2 (2/14/1966) Rehearsal
CD13 #12 - Leopard-Skin Pill-Box Hat – Take 3 (2/14/1966) Complete
CD13 #13 - Leopard-Skin Pill-Box Hat – Takes 4-5 (2/14/1966) Rehearsal
CD13 #14 - Leopard-Skin Pill-Box Hat – Take 6 (2/14/1966) Breakdown
CD13 #15 - Leopard-Skin Pill-Box Hat – Take 6 Again (2/14/1966) Rehearsal
CD13 #16 - Leopard-Skin Pill-Box Hat – Take 8 (2/14/1966) Complete
CD13 #17 - Leopard-Skin Pill-Box Hat – Take 9 (2/14/1966) Breakdown
CD13 #18 - Leopard-Skin Pill-Box Hat – Take 10 (2/14/1966) False Start
CD13 #19 - Leopard-Skin Pill-Box Hat – Take 11 (2/14/1966) Breakdown
CD13 #20 - Leopard-Skin Pill-Box Hat – Take 12 (2/14/1966) False Start
CD13 #21 - Leopard-Skin Pill-Box Hat – Take 13 (2/14/1966) Complete
CD13 #22 - I’ll Keep It with Mine (Instrumental) – Take 1 (2/15/1966) Rehearsal
CD13 #23 - I’ll Keep It with Mine (Instrumental) – Take 2 (2/15/1966) Rehearsal
CD13 #24 - I’ll Keep It with Mine (Instrumental) – Take 3 (2/15/1966) Rehearsal
CD13 #25 - I’ll Keep It with Mine (Instrumental) – Take 4 (2/15/1966) Rehearsal
CD13 #26 - I’ll Keep It with Mine (Instrumental) – Take 5 (2/15/1966) Rehearsal
CD13 #27 - I’ll Keep It with Mine (Instrumental) – Takes 6-7 (2/15/1966) Rehearsal
CD13 #28 - I’ll Keep It with Mine (Instrumental) – Take 8 (2/15/1966) Rehearsal
CD13 #29 - I’ll Keep It with Mine (Instrumental) – Take 8 Again (2/15/1966) Complete
CD13 #30 - I’ll Keep It with Mine (Instrumental) – Take 9 (2/15/1966) Complete

Analyzed: Bob Dylan / The Bootleg Series, Vol. 12: The Cutting Edge 1965-1966 (Collector's Edition) (24/96) [Disc 13]
––––––––––––––––––––––––––––––––––––––––

DR Peak RMS Duration Track
––––––––––––––––––––––––––––––––––––––––
DR11 -3.01 dB -16.46 dB 4:27 01-Fourth Time Around – Take 11 (2/14/1966) Complete
DR12 -3.28 dB -21.42 dB 0:47 02-Fourth Time Around – Takes 12-13 (2/14/1966) False Starts
DR13 -5.56 dB -24.22 dB 0:53 03-Fourth Time Around – Takes 14-16 (2/14/1966) False Starts
DR13 -4.29 dB -24.48 dB 1:16 04-Fourth Time Around – Takes 17-18 (2/14/1966) False Starts
DR13 -2.36 dB -19.70 dB 1:51 05-Fourth Time Around – Take 19 (2/14/1966) Breakdown
DR13 -1.71 dB -17.59 dB 4:37 06-Fourth Time Around – Take 19 Again (2/14/1966) Released on Blonde on Blonde, 1966
DR13 -3.52 dB -26.12 dB 0:23 07-Visions of Johanna – Take 1 (2/14/1966) False Start
DR14 -2.04 dB -20.05 dB 2:45 08-Visions of Johanna – Take 2 (2/14/1966) Breakdown
DR12 -3.62 dB -21.80 dB 0:34 09-Visions of Johanna – Take 3 (2/14/1966) False Start
DR15 -1.63 dB -20.24 dB 7:34 10-Visions of Johanna – Take 4 (2/14/1966) Released on Blonde on Blonde, 1966
DR14 -3.15 dB -23.24 dB 1:18 11-Leopard-Skin Pill-Box Hat – Takes 1-2 (2/14/1966) Rehearsal
DR12 -1.58 dB -16.69 dB 4:27 12-Leopard-Skin Pill-Box Hat – Take 3 (2/14/1966) Complete
DR11 -3.24 dB -18.23 dB 1:13 13-Leopard-Skin Pill-Box Hat – Takes 4-5 (2/14/1966) Rehearsal
DR11 -2.65 dB -17.61 dB 1:20 14-Leopard-Skin Pill-Box Hat – Take 6 (2/14/1966) Breakdown
DR12 -1.56 dB -16.98 dB 0:42 15-Leopard-Skin Pill-Box Hat – Take 6 Again (2/14/1966) Rehearsal
DR13 -1.28 dB -15.88 dB 3:26 16-Leopard-Skin Pill-Box Hat – Take 8 (2/14/1966) Complete
DR12 -2.13 dB -16.75 dB 1:56 17-Leopard-Skin Pill-Box Hat – Take 9 (2/14/1966) Breakdown
DR15 -3.71 dB -26.39 dB 1:00 18-Leopard-Skin Pill-Box Hat – Take 10 (2/14/1966) False Start
DR12 -2.02 dB -16.82 dB 1:47 19-Leopard-Skin Pill-Box Hat – Take 11 (2/14/1966) Breakdown
DR13 -2.28 dB -19.54 dB 0:15 20-Leopard-Skin Pill-Box Hat – Take 12 (2/14/1966) False Start
DR12 -1.50 dB -15.40 dB 2:42 21-Leopard-Skin Pill-Box Hat – Take 13 (2/14/1966) Complete
DR15 -12.09 dB -31.87 dB 0:31 22-I’ll Keep It with Mine (Instrumental) – Take 1 (2/15/1966) Rehearsal
DR12 -5.77 dB -21.25 dB 1:08 23-I’ll Keep It with Mine (Instrumental) – Take 2 (2/15/1966) Rehearsal
DR12 -10.71 dB -31.21 dB 0:07 24-I’ll Keep It with Mine (Instrumental) – Take 3 (2/15/1966) Rehearsal
DR13 -5.24 dB -22.51 dB 2:01 25-I’ll Keep It with Mine (Instrumental) – Take 4 (2/15/1966) Rehearsal
DR13 -3.65 dB -20.10 dB 1:49 26-I’ll Keep It with Mine (Instrumental) – Take 5 (2/15/1966) Rehearsal
DR14 -4.35 dB -22.75 dB 1:17 27-I’ll Keep It with Mine (Instrumental) – Takes 6-7 (2/15/1966) Rehearsal
DR12 -3.84 dB -19.60 dB 2:06 28-I’ll Keep It with Mine (Instrumental) – Take 8 (2/15/1966) Rehearsal
DR12 -5.11 dB -20.18 dB 3:14 29-I’ll Keep It with Mine (Instrumental) – Take 8 Again (2/15/1966) Complete
DR12 -3.85 dB -20.37 dB 3:11 30-I’ll Keep It with Mine (Instrumental) – Take 9 (2/15/1966) Complete
––––––––––––––––––––––––––––––––––––––––

Number of tracks: 30
Official DR value: DR13

Samplerate: 96000 Hz
Channels: 2
Bits per sample: 24
Bitrate: 2741 kbps
Codec: FLAC
================================================================================



CD14 #01 - Sad-Eyed Lady of the Lowlands – Take 1 (2/16/1966) Complete
CD14 #02 - Sad-Eyed Lady of the Lowlands – Take 2 (2/16/1966) Rehearsal
CD14 #03 - Sad-Eyed Lady of the Lowlands – Take 3 (2/16/1966) Complete
CD14 #04 - Sad-Eyed Lady of the Lowlands – Take 4 (2/16/1966) Released on Blonde on Blonde, 1966
CD14 #05 - Stuck Inside of Mobile with the Memphis Blues Again – Take 1 (2/17/1966) Rehearsal
CD14 #06 - Stuck Inside of Mobile with the Memphis Blues Again – (2/17/1966) Rehearsal
CD14 #07 - Stuck Inside of Mobile with the Memphis Blues Again – Take 1 (2/17/1966) Breakdown
CD14 #08 - Stuck Inside of Mobile with the Memphis Blues Again – Takes 2-3 (2/17/1966) Rehearsal
CD14 #09 - Stuck Inside of Mobile with the Memphis Blues Again – Take 4 (2/17/1966) Breakdown
CD14 #10 - Stuck Inside of Mobile with the Memphis Blues Again – Take 4 (Mis-Slate) (2/17/1966) False Start
CD14 #11 - Stuck Inside of Mobile with the Memphis Blues Again – Take 5 (2/17/1966) Released on the Bootleg Series, Vol. 7, 2005
CD14 #12 - Stuck Inside of Mobile with the Memphis Blues Again – Takes 6-8 (2/17/1966) False Starts
CD14 #13 - Stuck Inside of Mobile with the Memphis Blues Again – Take 9 (2/17/1966) Breakdown
CD14 #14 - Stuck Inside of Mobile with the Memphis Blues Again – Take 10 (2/17/1966) False Start
CD14 #15 - Stuck Inside of Mobile with the Memphis Blues Again – Takes 11-12 (2/17/1966) Breakdown
CD14 #16 - Stuck Inside of Mobile with the Memphis Blues Again – Take 13 (2/17/1966) Breakdown
CD15 #01 - Stuck Inside of Mobile with the Memphis Blues Again – Take 14 (2/17/1966) Complete

Analyzed: Bob Dylan / The Bootleg Series, Vol. 12: The Cutting Edge 1965-1966 (Collector's Edition) (24/96) [Disc 14]
––––––––––––––––––––––––––––––––––––––––

DR Peak RMS Duration Track
––––––––––––––––––––––––––––––––––––––––
DR12 -2.69 dB -16.83 dB 10:09 01-Sad-Eyed Lady of the Lowlands – Take 1 (2/16/1966) Complete
DR14 -12.63 dB -32.87 dB 2:07 02-Sad-Eyed Lady of the Lowlands – Take 2 (2/16/1966) Rehearsal
DR13 -2.01 dB -17.33 dB 12:20 03-Sad-Eyed Lady of the Lowlands – Take 3 (2/16/1966) Complete
DR13 -1.22 dB -17.69 dB 11:24 04-Sad-Eyed Lady of the Lowlands – Take 4 (2/16/1966) Released on Blonde on Blonde, 1966
DR13 -2.20 dB -18.79 dB 3:23 05-Stuck Inside of Mobile with the Memphis Blues Again – Take 1 (2/17/1966) Rehearsal
DR13 -2.62 dB -19.02 dB 4:54 06-Stuck Inside of Mobile with the Memphis Blues Again – (2/17/1966) Rehearsal
DR13 -2.51 dB -21.01 dB 1:52 07-Stuck Inside of Mobile with the Memphis Blues Again – Take 1 (2/17/1966) Breakdown
DR14 -4.36 dB -23.85 dB 1:14 08-Stuck Inside of Mobile with the Memphis Blues Again – Takes 2-3 (2/17/1966) Rehearsal
DR13 -1.93 dB -16.73 dB 2:45 09-Stuck Inside of Mobile with the Memphis Blues Again – Take 4 (2/17/1966) Breakdown
DR12 -4.00 dB -17.02 dB 0:11 10-Stuck Inside of Mobile with the Memphis Blues Again – Take 4 (Mis-Slate) (2/17/1966) False Start
DR12 -1.54 dB -15.06 dB 5:53 11-Stuck Inside of Mobile with the Memphis Blues Again – Take 5 (2/17/1966) Released on the Bootleg Series, Vol. 7, 2005
DR12 -2.77 dB -21.79 dB 0:40 12-Stuck Inside of Mobile with the Memphis Blues Again – Takes 6-8 (2/17/1966) False Starts
DR11 -0.71 dB -14.12 dB 0:33 13-Stuck Inside of Mobile with the Memphis Blues Again – Take 9 (2/17/1966) Breakdown
DR11 -0.71 dB -14.30 dB 0:21 14-Stuck Inside of Mobile with the Memphis Blues Again – Take 10 (2/17/1966) False Start
DR12 -0.71 dB -17.47 dB 1:44 15-Stuck Inside of Mobile with the Memphis Blues Again – Takes 11-12 (2/17/1966) Breakdown
DR11 -1.49 dB -14.18 dB 4:08 16-Stuck Inside of Mobile with the Memphis Blues Again – Take 13 (2/17/1966) Breakdown
––––––––––––––––––––––––––––––––––––––––

Number of tracks: 16
Official DR value: DR12

Samplerate: 96000 Hz
Channels: 2
Bits per sample: 24
Bitrate: 2806 kbps
Codec: FLAC
================================================================================



CD15 #02 - Stuck Inside of Mobile with the Memphis Blues Again – Take 15 (2/17/1966) Released on Blonde on Blonde, 1966
CD15 #03 - Absolutely Sweet Marie – (3/07/1966) Rehearsal
CD15 #04 - Absolutely Sweet Marie – Take 1 (3/07/1966) Complete
CD15 #05 - Absolutely Sweet Marie – Take 2 (3/07/1966) False Start
CD15 #06 - Absolutely Sweet Marie – Take 3 (3/07/1966) Released on Blonde on Blonde, 1966
CD15 #07 - Absolutely Sweet Marie – (3/07/1966) Insert
CD15 #08 - Just Like a Woman – Take 1 (3/08/1966) Complete
CD15 #09 - Just Like a Woman – Take 2 (3/08/1966) Complete
CD15 #10 - Just Like a Woman – Take 3 (3/08/1966) Complete
CD15 #11 - Just Like a Woman – Take 4 (3/08/1966) Complete
CD15 #12 - Pledging My Time – Take 1 (3/08/1966) Breakdown
CD15 #13 - Pledging My Time – (3/08/1966) Rehearsal
CD15 #14 - Pledging My Time – Take 2 (3/08/1966) False Start
CD15 #15 - Pledging My Time – Take 3 (3/08/1966) Released on Blonde on Blonde, 1966
CD15 #16 - Just Like a Woman – Take 5 (3/08/1966) False Start
CD15 #17 - Just Like a Woman – Take 6 (3/08/1966) Breakdown

Analyzed: Bob Dylan / The Bootleg Series, Vol. 12: The Cutting Edge 1965-1966 (Collector's Edition) (24/96) [Disc 15]
––––––––––––––––––––––––––––––––––––––––

DR Peak RMS Duration Track
––––––––––––––––––––––––––––––––––––––––
DR12 -0.72 dB -14.14 dB 7:05 01-Stuck Inside of Mobile with the Memphis Blues Again – Take 14 (2/17/1966) Complete
DR11 -0.85 dB -13.44 dB 7:07 02-Stuck Inside of Mobile with the Memphis Blues Again – Take 15 (2/17/1966) Released on Blonde on Blonde, 1966
DR12 -0.71 dB -14.28 dB 3:19 03-Absolutely Sweet Marie – (3/07/1966) Rehearsal
DR10 -2.04 dB -13.76 dB 5:02 04-Absolutely Sweet Marie – Take 1 (3/07/1966) Complete
DR7 -1.89 dB -17.85 dB 0:23 05-Absolutely Sweet Marie – Take 2 (3/07/1966) False Start
DR11 -0.71 dB -12.80 dB 4:58 06-Absolutely Sweet Marie – Take 3 (3/07/1966) Released on Blonde on Blonde, 1966
DR11 -0.72 dB -13.86 dB 1:17 07-Absolutely Sweet Marie – (3/07/1966) Insert
DR12 -1.95 dB -16.27 dB 4:32 08-Just Like a Woman – Take 1 (3/08/1966) Complete
DR12 -1.96 dB -15.76 dB 5:13 09-Just Like a Woman – Take 2 (3/08/1966) Complete
DR12 -1.20 dB -15.91 dB 5:13 10-Just Like a Woman – Take 3 (3/08/1966) Complete
DR9 -3.20 dB -14.08 dB 5:20 11-Just Like a Woman – Take 4 (3/08/1966) Complete
DR9 -2.71 dB -13.17 dB 3:27 12-Pledging My Time – Take 1 (3/08/1966) Breakdown
DR13 -0.72 dB -17.86 dB 1:11 13-Pledging My Time – (3/08/1966) Rehearsal
DR10 -1.45 dB -19.73 dB 0:22 14-Pledging My Time – Take 2 (3/08/1966) False Start
DR12 -0.72 dB -14.63 dB 4:04 15-Pledging My Time – Take 3 (3/08/1966) Released on Blonde on Blonde, 1966
DR13 -5.17 dB -23.55 dB 1:15 16-Just Like a Woman – Take 5 (3/08/1966) False Start
DR12 -2.57 dB -17.24 dB 3:25 17-Just Like a Woman – Take 6 (3/08/1966) Breakdown
––––––––––––––––––––––––––––––––––––––––

Number of tracks: 17
Official DR value: DR11

Samplerate: 96000 Hz
Channels: 2
Bits per sample: 24
Bitrate: 2731 kbps
Codec: FLAC
================================================================================



CD16 #01 - Just Like a Woman – Take 8 (3/08/1966) Complete
CD16 #02 - Just Like a Woman – Takes 9-10 (3/08/1966) False Start, Breakdown
CD16 #03 - Just Like a Woman – Takes 11-12 (3/08/1966) Rehearsal
CD16 #04 - Just Like a Woman – Take 13 (3/08/1966) Breakdown
CD16 #05 - Just Like a Woman – Takes 14-15 (3/08/1966) Rehearsal
CD16 #06 - Just Like a Woman – Take 16 (3/08/1966) Complete
CD16 #07 - Just Like a Woman – Take 17 (3/08/1966) Breakdown
CD16 #08 - Just Like a Woman – Take 18 (3/08/1966) Released on Blonde on Blonde, 1966
CD16 #09 - Most Likely You Go Your Way (And I’ll Go Mine) – Take 1 (3/09/1966) Complete
CD16 #10 - Most Likely You Go Your Way (And I’ll Go Mine) – Take 2 (3/09/1966) Rehearsal
CD16 #11 - Most Likely You Go Your Way (And I’ll Go Mine) – Take 3 (3/09/1966) Rehearsal
CD16 #12 - Most Likely You Go Your Way (And I’ll Go Mine) – Take 4 (3/09/1966) Rehearsal
CD16 #13 - Most Likely You Go Your Way (And I’ll Go Mine) – Take 5 (3/09/1966) Breakdown
CD16 #14 - Most Likely You Go Your Way (And I’ll Go Mine) – Take 6 (3/09/1966) Released on Blonde on Blonde, 1966
CD16 #15 - Temporary Like Achilles – Take 1 (3/09/1966) Complete
CD16 #16 - Temporary Like Achilles – Take 2 (3/09/1966) False Start
CD16 #17 - Temporary Like Achilles – Take 3 (3/09/1966) Complete
CD16 #18 - Temporary Like Achilles – Take 4 (3/09/1966) Released on Blonde on Blonde, 1966
CD16 #19 - Rainy Day Women #12 & 35 – (3/10/1966) Rehearsal
CD16 #20 - Rainy Day Women #12 & 35 – Take 1 (3/10/1966) Released on Blonde on Blonde, 1966

Analyzed: Bob Dylan / The Bootleg Series, Vol. 12: The Cutting Edge 1965-1966 (Collector's Edition) (24/96) [Disc 16]
––––––––––––––––––––––––––––––––––––––––

DR Peak RMS Duration Track
––––––––––––––––––––––––––––––––––––––––
DR12 -1.75 dB -15.73 dB 5:22 01-Just Like a Woman – Take 8 (3/08/1966) Complete
DR11 -1.74 dB -15.55 dB 3:46 02-Just Like a Woman – Takes 9-10 (3/08/1966) False Start, Breakdown
DR12 -3.77 dB -19.76 dB 1:21 03-Just Like a Woman – Takes 11-12 (3/08/1966) Rehearsal
DR11 -2.10 dB -15.17 dB 3:55 04-Just Like a Woman – Take 13 (3/08/1966) Breakdown
DR12 -3.11 dB -21.74 dB 1:31 05-Just Like a Woman – Takes 14-15 (3/08/1966) Rehearsal
DR13 -1.95 dB -16.47 dB 5:10 06-Just Like a Woman – Take 16 (3/08/1966) Complete
DR12 -3.21 dB -18.24 dB 0:52 07-Just Like a Woman – Take 17 (3/08/1966) Breakdown
DR13 -3.11 dB -17.51 dB 4:53 08-Just Like a Woman – Take 18 (3/08/1966) Released on Blonde on Blonde, 1966
DR12 -1.71 dB -15.46 dB 3:38 09-Most Likely You Go Your Way (And I’ll Go Mine) – Take 1 (3/09/1966) Complete
DR13 -2.81 dB -22.29 dB 1:05 10-Most Likely You Go Your Way (And I’ll Go Mine) – Take 2 (3/09/1966) Rehearsal
DR13 -2.78 dB -18.50 dB 1:42 11-Most Likely You Go Your Way (And I’ll Go Mine) – Take 3 (3/09/1966) Rehearsal
DR12 -2.77 dB -18.02 dB 1:35 12-Most Likely You Go Your Way (And I’ll Go Mine) – Take 4 (3/09/1966) Rehearsal
DR13 -2.40 dB -16.99 dB 1:11 13-Most Likely You Go Your Way (And I’ll Go Mine) – Take 5 (3/09/1966) Breakdown
DR12 -2.15 dB -16.27 dB 3:30 14-Most Likely You Go Your Way (And I’ll Go Mine) – Take 6 (3/09/1966) Released on Blonde on Blonde, 1966
DR12 -1.68 dB -16.82 dB 5:14 15-Temporary Like Achilles – Take 1 (3/09/1966) Complete
DR11 -4.49 dB -19.73 dB 0:38 16-Temporary Like Achilles – Take 2 (3/09/1966) False Start
DR12 -1.47 dB -16.71 dB 5:42 17-Temporary Like Achilles – Take 3 (3/09/1966) Complete
DR12 -3.15 dB -17.06 dB 5:19 18-Temporary Like Achilles – Take 4 (3/09/1966) Released on Blonde on Blonde, 1966
DR15 -2.12 dB -25.69 dB 1:36 19-Rainy Day Women #12 & 35 – (3/10/1966) Rehearsal
DR12 -1.98 dB -15.60 dB 4:41 20-Rainy Day Women #12 & 35 – Take 1 (3/10/1966) Released on Blonde on Blonde, 1966
––––––––––––––––––––––––––––––––––––––––

Number of tracks: 20
Official DR value: DR12

Samplerate: 96000 Hz
Channels: 2
Bits per sample: 24
Bitrate: 2895 kbps
Codec: FLAC
================================================================================



CD17 #01 - Obviously Five Believers – Take 1 (3/10/1966) False Start
CD17 #02 - Obviously Five Believers – Take 2 (3/10/1966) Breakdown
CD17 #03 - Obviously Five Believers – Take 3 (3/10/1966) Complete
CD17 #04 - Obviously Five Believers – Take 4 (3/10/1966) Released on Blonde on Blonde, 1966
CD17 #05 - Leopard-Skin Pill-Box Hat – Take 1 (3/10/1966) Released on Blonde on Blonde, 1966
CD17 #06 - I Want You – (3/10/1966) Rehearsal
CD17 #07 - I Want You – Take 1 (3/10/1966) Complete
CD17 #08 - I Want You – Take 2 (3/10/1966) Breakdown
CD17 #09 - I Want You – Take 3 (3/10/1966) Rehearsal, False Start
CD17 #10 - I Want You – Take 4 (3/10/1966) Complete
CD17 #11 - I Want You – Take 5 (3/10/1966) Released on Blonde on Blonde, 1966
CD17 #12 - I Want You – Take 5b (3/10/1966) Insert, Guitar Overdub

Analyzed: Bob Dylan / The Bootleg Series, Vol. 12: The Cutting Edge 1965-1966 (Collector's Edition) (24/96) [Disc 17]
––––––––––––––––––––––––––––––––––––––––

DR Peak RMS Duration Track
––––––––––––––––––––––––––––––––––––––––
DR13 -4.73 dB -24.98 dB 0:59 01-Obviously Five Believers – Take 1 (3/10/1966) False Start
DR12 -3.00 dB -18.38 dB 1:13 02-Obviously Five Believers – Take 2 (3/10/1966) Breakdown
DR13 -1.62 dB -16.19 dB 3:47 03-Obviously Five Believers – Take 3 (3/10/1966) Complete
DR12 -2.29 dB -15.60 dB 3:37 04-Obviously Five Believers – Take 4 (3/10/1966) Released on Blonde on Blonde, 1966
DR12 -2.20 dB -16.05 dB 3:58 05-Leopard-Skin Pill-Box Hat – Take 1 (3/10/1966) Released on Blonde on Blonde, 1966
DR11 -4.92 dB -21.39 dB 1:59 06-I Want You – (3/10/1966) Rehearsal
DR11 -2.96 dB -15.62 dB 3:01 07-I Want You – Take 1 (3/10/1966) Complete
DR11 -2.93 dB -17.82 dB 3:11 08-I Want You – Take 2 (3/10/1966) Breakdown
DR11 -4.83 dB -21.13 dB 0:43 09-I Want You – Take 3 (3/10/1966) Rehearsal, False Start
DR9 -4.90 dB -15.19 dB 2:52 10-I Want You – Take 4 (3/10/1966) Complete
DR11 -2.99 dB -15.67 dB 3:09 11-I Want You – Take 5 (3/10/1966) Released on Blonde on Blonde, 1966
DR11 -3.54 dB -15.70 dB 3:08 12-I Want You – Take 5b (3/10/1966) Insert, Guitar Overdub
––––––––––––––––––––––––––––––––––––––––

Number of tracks: 12
Official DR value: DR11

Samplerate: 96000 Hz
Channels: 2
Bits per sample: 24
Bitrate: 2924 kbps
Codec: FLAC
================================================================================



CD18 #01 - Remember Me – (5/04/1965) Savoy Hotel, London
CD18 #02 - More and More – (5/04/1965) Savoy Hotel, London
CD18 #03 - Blues Stay Away from Me – (5/04/1965) Savoy Hotel, London
CD18 #04 - Weary Blues from Waitin’ – (5/04/1965) Savoy Hotel, London
CD18 #05 - Lost Highway – (5/04/65) Savoy Hotel, London
CD18 #06 - I’m So Lonesome I Could Cry – (5/04/1965) Savoy Hotel, London
CD18 #07 - Young but Daily Growing – (5/04/1965) Savoy Hotel, London
CD18 #08 - Wild Mountain Thyme – (5/04/1965) Savoy Hotel, London
CD18 #09 - I Can’t Leave Her Behind [1 - – (5/13/1966) North British Station Hotel, Glasgow, Scotland
CD18 #10 - I Can’t Leave Her Behind [2 - – (5/13/1966) North British Station Hotel, Glasgow, Scotland
CD18 #11 - On a Rainy Afternoon – (5/13/1966) North British Station Hotel, Glasgow, Scotland
CD18 #12 - If I Was a King [1 - – (5/13/1966) North British Station Hotel, Glasgow, Scotland
CD18 #13 - If I Was a King [2 - – (5/13/1966) North British Station Hotel, Glasgow, Scotland
CD18 #14 - What Kind of Friend Is This – (5/13/1966) North British Station Hotel, Glasgow, Scotland
CD18 #15 - Positively van Gogh [1 - – (3/12/1966) Denver, Colorado Hotel Room
CD18 #16 - Positively van Gogh [2 - – (3/12/1966) Denver, Colorado Hotel Room
CD18 #17 - Positively van Gogh [3 - – (3/12/1966) Denver, Colorado Hotel Room
CD18 #18 - Don’t Tell Him, Tell Me – (3/12/1966) Denver, Colorado Hotel Room
CD18 #19 - If You Want My Love – (3/12/1966) Denver, Colorado Hotel Room
CD18 #20 - Just Like a Woman – (3/12/1966) Denver, Colorado Hotel Room
CD18 #21 - Sad-Eyed Lady of the Lowlands – (3/12/1966) Denver, Colorado Hotel Room

Analyzed: Bob Dylan / The Bootleg Series, Vol. 12: The Cutting Edge 1965-1966 (Collector's Edition) (24/96) [Disc 18]
––––––––––––––––––––––––––––––––––––––––

DR Peak RMS Duration Track
––––––––––––––––––––––––––––––––––––––––
DR9 -5.18 dB -16.96 dB 1:12 01-Remember Me – (5/04/1965) Savoy Hotel, London
DR9 -4.27 dB -16.95 dB 2:12 02-More and More – (5/04/1965) Savoy Hotel, London
DR10 -6.01 dB -19.99 dB 2:03 03-Blues Stay Away from Me – (5/04/1965) Savoy Hotel, London
DR10 -7.10 dB -21.90 dB 1:31 04-Weary Blues from Waitin’ – (5/04/1965) Savoy Hotel, London
DR9 -5.29 dB -17.89 dB 2:15 05-Lost Highway – (5/04/65) Savoy Hotel, London
DR11 -7.85 dB -23.81 dB 0:52 06-I’m So Lonesome I Could Cry – (5/04/1965) Savoy Hotel, London
DR10 -6.74 dB -19.77 dB 2:51 07-Young but Daily Growing – (5/04/1965) Savoy Hotel, London
DR8 -6.38 dB -20.22 dB 4:23 08-Wild Mountain Thyme – (5/04/1965) Savoy Hotel, London
DR13 -5.09 dB -23.00 dB 2:42 09-I Can’t Leave Her Behind [1] – (5/13/1966) North British Station Hotel, Glasgow, Scotland
DR13 -5.07 dB -21.98 dB 4:57 10-I Can’t Leave Her Behind [2] – (5/13/1966) North British Station Hotel, Glasgow, Scotland
DR12 -6.88 dB -21.44 dB 1:38 11-On a Rainy Afternoon – (5/13/1966) North British Station Hotel, Glasgow, Scotland
DR12 -6.06 dB -23.94 dB 3:00 12-If I Was a King [1] – (5/13/1966) North British Station Hotel, Glasgow, Scotland
DR12 -7.17 dB -23.50 dB 2:38 13-If I Was a King [2] – (5/13/1966) North British Station Hotel, Glasgow, Scotland
DR10 -8.14 dB -20.36 dB 2:45 14-What Kind of Friend Is This – (5/13/1966) North British Station Hotel, Glasgow, Scotland
DR14 -6.55 dB -23.86 dB 0:53 15-Positively van Gogh [1] – (3/12/1966) Denver, Colorado Hotel Room
DR16 -4.55 dB -24.36 dB 6:15 16-Positively van Gogh [2] – (3/12/1966) Denver, Colorado Hotel Room
DR16 -4.29 dB -24.16 dB 2:18 17-Positively van Gogh [3] – (3/12/1966) Denver, Colorado Hotel Room
DR12 -8.05 dB -22.98 dB 1:21 18-Don’t Tell Him, Tell Me – (3/12/1966) Denver, Colorado Hotel Room
DR12 -7.78 dB -22.75 dB 3:53 19-If You Want My Love – (3/12/1966) Denver, Colorado Hotel Room
DR12 -7.72 dB -22.81 dB 4:29 20-Just Like a Woman – (3/12/1966) Denver, Colorado Hotel Room
DR12 -6.85 dB -22.05 dB 13:17 21-Sad-Eyed Lady of the Lowlands – (3/12/1966) Denver, Colorado Hotel Room
––––––––––––––––––––––––––––––––––––––––

Number of tracks: 21
Official DR value: DR11

Samplerate: 96000 Hz
Channels: 2
Bits per sample: 24
Bitrate: 1452 kbps
Codec: FLAC
================================================================================


Thanks to the Original customer!

Bob Dylan and The Band - The Bootleg Series, Vol. 11: The Basement Tapes (Complete Edition '2014)
Bob Dylan - The Cutting Edge 1965-1966 (2015) [6CD Deluxe Edition]