Bob Dylan - Bringing It All Back Home (1965) [MFSL 2013] PS3 ISO + Hi-Res FLAC / RE-UP

Posted By: HDAtall
Bob Dylan - Bringing It All Back Home (1965) [MFSL 2013] PS3 ISO + Hi-Res FLAC / RE-UP

Bob Dylan - Bringing It All Back Home (1965) [MFSL 2013]
PS3 Rip | SACD ISO | DSD64 2.0 > 1-bit/2.8224 MHz | 47:23 minutes | Scans included | 1,46 GB
or FLAC(converted with foobar2000 to tracks) 24bit/88,2 kHz | Full Scans included | 1013 MB
Mobile Fidelity Sound Lab # UDSACD 2096

With Another Side of Bob Dylan, Dylan had begun pushing past folk, and with Bringing It All Back Home, he exploded the boundaries, producing an album of boundless imagination and skill. And it's not just that he went electric, either, rocking hard on "Subterranean Homesick Blues," "Maggie's Farm," and "Outlaw Blues"; it's that he's exploding with imagination throughout the record. After all, the music on its second side – the nominal folk songs – derive from the same vantage point as the rockers, leaving traditional folk concerns behind and delving deep into the personal. And this isn't just introspection, either, since the surreal paranoia on "It's Alright, Ma (I'm Only Bleeding)" and the whimsical poetry of "Mr. Tambourine Man" are individual, yet not personal. And that's just the tip of the iceberg, really, as he writes uncommonly beautiful love songs ("She Belongs to Me," "Love Minus Zero/No Limit") that sit alongside uncommonly funny fantasias ("On the Road Again," "Bob Dylan's 115th Dream"). This is the point where Dylan eclipses any conventional sense of folk and rewrites the rules of rock, making it safe for personal expression and poetry, not only making words mean as much as the music, but making the music an extension of the words. A truly remarkable album.

Tracklist:

01. Subterranean Homesick Blues
02. She Belongs To Me
03. Maggie's Farm
04. Love Minus Zero / No Limit
05. Outlaw Blues
06. On The Road Again
07. Bob Dylan's 115th Dream
08. Mr. Tambourine Man
09. Gates Of Eden
10. It's Alright, Ma (I'm Only Bleeding)
11. It's All Over Now, Baby Blue

Mastered by Shawn R. Britton at Mobile Fidelity Sound Lab, Sebastopol, CA.

foobar2000 1.2.9 / Dynamic Range Meter 1.1.1

––––––––––––––––––––––––––––––––––––––––
Analyzed: Bob Dylan / Bringing It All Back Home
––––––––––––––––––––––––––––––––––––––––

DR Peak RMS Duration Track
––––––––––––––––––––––––––––––––––––––––
DR11 -6.60 dB -18.94 dB 2:22 01-Subterranean Homesick Blues
DR12 -6.19 dB -20.85 dB 2:51 02-She Belongs To Me
DR11 -6.29 dB -18.52 dB 4:02 03-Maggie's Farm
DR12 -6.29 dB -20.58 dB 2:51 04-Love Minus Zero / No Limit
DR11 -6.25 dB -18.90 dB 3:05 05-Outlaw Blues
DR11 -6.28 dB -19.56 dB 2:38 06-On The Road Again
DR11 -6.34 dB -19.06 dB 6:36 07-Bob Dylan's 115th Dream
DR13 -7.11 dB -21.63 dB 5:26 08-Mr. Tambourine Man
DR12 -6.35 dB -19.76 dB 5:45 09-Gates Of Eden
DR12 -7.55 dB -21.02 dB 7:33 10-It's Alright, Ma (I'm Only Bleeding)
DR12 -7.01 dB -21.64 dB 4:13 11-It's All Over Now, Baby Blue
––––––––––––––––––––––––––––––––––––––––

Number of tracks: 11
Official DR value: DR11

Samplerate: 2822400 Hz / PCM Samplerate: 88200 Hz
Channels: 2
Bits per sample: 24
Bitrate: 5645 kbps
Codec: DSD64


Thanks to PS³SACD!
Uncompressed SACD ISO size > 1,9 GB
>