Brook Benton - Mother Nature, Father Time (1966/2015) [Official Digital Download 24/96]

Posted By: HDV
Brook Benton - Mother Nature, Father Time (1966/2015) [Official Digital Download 24/96]

Brook Benton - Mother Nature, Father Time (1966/2015)
FLAC (tracks) 24-bit/96 kHz | Time - 30:26 minutes | 626 MB
Studio Master, Official Digital Download | Artwork: Front cover

Brook Benton, born Benjamin Franklin Peay was an American singer and songwriter who was popular with rock and roll, rhythm and blues, and pop music audiences during the late 1950s and early 1960s. In the mid 1960s, Benton recorded for RCA Records and Reprise Records with minimal commercial success.

Tracklist:

01 - While There's Life (There's Still Hope)
02 - Mother Nature, Father Time
03 - I Wanna Be With You (Everywhere You Go)
04 - Life Is Too Short (For Me to Stop Loving You)
05 - You're So Wonderful
06 - It's a Crime
07 - Boy, I Wish I Was In Your Place
08 - Since You've Been Gone
09 - The Song I Heard Last Night (Play It Again)
10 - Foolish Enough to Try
11 - You're Mine (And I Love You)
12 - More Time to Be With You

Analyzed: Brook Benton / Mother Nature, Father Time
––––––––––––––––––––––––––––––––––––––––

DR Peak RMS Duration Track
––––––––––––––––––––––––––––––––––––––––
DR11 -3.34 dB -17.56 dB 2:51 01-While There's Life (There's Still Hope)
DR11 -4.07 dB -17.95 dB 2:53 02-Mother Nature, Father Time
DR11 -0.72 dB -14.91 dB 2:34 03-I Wanna Be With You (Everywhere You Go)
DR12 -1.67 dB -17.03 dB 2:49 04-Life Is Too Short (For Me to Stop Loving You)
DR13 -2.16 dB -19.12 dB 2:21 05-You're So Wonderful
DR11 -3.33 dB -17.21 dB 2:16 06-It's a Crime
DR12 -2.60 dB -16.95 dB 2:20 07-Boy, I Wish I Was In Your Place
DR11 -0.86 dB -15.78 dB 2:44 08-Since You've Been Gone
DR11 -2.77 dB -16.73 dB 2:40 09-The Song I Heard Last Night (Play It Again)
DR11 -2.06 dB -15.08 dB 2:02 10-Foolish Enough to Try
DR13 -4.03 dB -18.66 dB 2:26 11-You're Mine (And I Love You)
DR12 -3.88 dB -19.31 dB 2:29 12-More Time to Be With You
––––––––––––––––––––––––––––––––––––––––

Number of tracks: 12
Official DR value: DR12

Samplerate: 96000 Hz
Channels: 2
Bits per sample: 24
Bitrate: 2477 kbps
Codec: FLAC
================================================================================


Thanks to the Original customer!