Bruce Springsteen - Born To Run (1975/2014) [Official Digital Download 24bit/96kHz]

Posted By: HDV
Bruce Springsteen - Born To Run (1975/2014) [Official Digital Download 24bit/96kHz]

Bruce Springsteen - Born To Run (1975/2014)
FLAC (tracks) 24 bit/96 kHz | Time - 39:26 minutes | 894 MB
Studio Master, Official Digital Download | Artwork: Front cover

Born to Run was Bruce Springsteen's third studio album and his commercial breakthrough success. Released in 1975, the album featured two singles: "Born to Run" and "Tenth Avenue Freeze-Out". The songs "Thunder Road" and "Jungleland" also became hits and are staples of Springsteen's live show to this day. The album was almost universally praised by critics, and peaked at #3 on the Billboard 200 chart in 1975. It has been certified triple-platinum by the RIAA as of 1986, and Rolling Stone magazine ranked it at #18 on its list of the 500 Greatest Albums of All Time.

Bruce Springsteen's make-or-break third album represented a sonic leap from his first two, which had been made for modest sums at a suburban studio; Born to Run was cut on a superstar budget, mostly at the Record Plant in New York. Springsteen's backup band had changed, with his two virtuoso players, keyboardist David Sancious and drummer Vini Lopez, replaced by the professional but less flashy Roy Bittan and Max Weinberg. The result was a full, highly produced sound that contained elements of Phil Spector's melodramatic work of the 1960s. Layers of guitar, layers of echo on the vocals, lots of keyboards, thunderous drums – Born to Run had a big sound, and Springsteen wrote big songs to match it. The overall theme of the album was similar to that of The E Street Shuffle; Springsteen was describing, and saying farewell to, a romanticized teenage street life. But where he had been affectionate, even humorous before, he was becoming increasingly bitter. If Springsteen had celebrated his dead-end kids on his first album and viewed them nostalgically on his second, on his third he seemed to despise their failure, perhaps because he was beginning to fear he was trapped himself. Nevertheless, he now felt removed, composing an updated West Side Story with spectacular music that owed more to Bernstein than to Berry. To call Born to Run overblown is to miss the point; Springsteen's precise intention is to blow things up, both in the sense of expanding them to gargantuan size and of exploding them. If The Wild, the Innocent & the E Street Shuffle was an accidental miracle, Born to Run was an intentional masterpiece. It declared its own greatness with songs and a sound that lived up to Springsteen's promise, and though some thought it took itself too seriously, many found that exalting.

Tracklist:

01 - Thunder Road
02 - Tenth Avenue Freeze-Out
03 - Night
04 - Backstreets
05 - Born To Run
06 - She's The One
07 - Meeting Across The River
08 - Jungleland

This 30th Anniversary Edition of Born to Run was remastered by acclaimed engineer Bob Ludwig, working directly with Springsteen and longtime engineer Toby Scott, newly transferred from the original analogue masters using the Plangent Process playback system.

Analyzed: Bruce Springsteen / Born To Run - 30th Anniversary Edition
––––––––––––––––––––––––––––––––––––––––

DR Peak RMS Duration Track
––––––––––––––––––––––––––––––––––––––––
DR7 -0.10 dB -9.88 dB 4:49 01-Thunder Road
DR8 -0.09 dB -9.40 dB 3:11 02-Tenth Avenue Freeze-Out
DR8 -0.10 dB -9.16 dB 3:01 03-Night
DR7 -0.10 dB -8.86 dB 6:32 04-Backstreets
DR7 0.00 dB -8.39 dB 4:30 05-Born To Run
DR7 -0.57 dB -9.86 dB 4:30 06-She's The One
DR9 -0.64 dB -14.67 dB 3:19 07-Meeting Across The River
DR7 -0.10 dB -10.92 dB 9:33 08-Jungleland
––––––––––––––––––––––––––––––––––––––––

Number of tracks: 8
Official DR value: DR8

Samplerate: 96000 Hz
Channels: 2
Bits per sample: 24
Bitrate: 2959 kbps
Codec: FLAC
================================================================================


Thanks to the Original customer!