Buena Vista Social Club - Lost And Found (2015) [Official Digital Download]

Posted By: HDV
Buena Vista Social Club - Lost And Found (2015) [Official Digital Download]

Buena Vista Social Club - Lost And Found (2015)
FLAC (tracks) 24-bit/44,1 kHz | Time - 47:41 minutes | 553 MB
Studio Master, Official Digital Download | Artwork: Front cover

Unreleased recordings from the original Buena Vista Social Club sessions, artists sessions and iconic live performances. Buena Vista Social Club released in 1997 is one of the biggest selling world music album of all time and its great, this collection will fulfill any long-term fans!

The studio tracks on Lost and Found were recorded at the 1996 Egrem studio sessions in Havana and during a period of rich and prolific creativity stretching into the early 2000s following the recording of the original album. Lost and Found also features live recordings from the world tours of Buena Vista’s legendary veterans.

It's hard to believe that it took Nick Gold and his World Circuit team to plunder the vaults for unreleased Buena Vista Social Club recordings. This loose-knit group of all-but-forgotten all-star musicians from pre-Revolutionary Havana was assembled by Juan de Marcos González and American guitarist Ry Cooder – and supported by a cast of players they influenced – to record its self-titled 1997 album that went platinum in the wake of Wim Wenders' 1999 film of the same name. Its members subsequently recorded solo and together, and various versions of the group have continued to tour internationally, but some of its foundational members have since passed on – singers Ibrahim Ferrer and Compay Segundo, pianist Rubén González, bassist Orlando "Cachaito" Lopez, and bassist Miguel "Angá" Díaz. Lost and Found compiles unreleased vault tracks from the original 1996 EGREM studios sessions, live tracks, and rehearsal sessions from subsequent albums. But this music is anything but a hodgepodge, half-baked assortment. It is assembled with care and attention to the group's legacy. For starters, opener "Bruca Manigua" is one of three excellent live tracks to feature Ferrer on his 2000 tour in support of his debut album, backed by a killer large band. "Macusa" is a vocal duet between Eliades Ochoa and Segundo from the 1996 sessions. The pair delivered the album's standout hit, "Chan Chan." Omara Portuondo's gorgeous reading of the Cuban standard "Lágrimas Negras" could have easily made the cut on the 1997 album; that it didn't is a head scratcher. Likewise, "Tiene Sabor" is sultry and steamy; it's all roiling passion underscored by a saucy female backing chorus and a sizzling violin solo. (This may be the album's finest track.) "Black Chicken 37," a duet between Díaz and Cachaito (playing arco), reveals the improvisational power in Afro-Cuban jazz. Two solo tracks by Ochoa, the guitar instrumental "Quiéreme Mucho" and the bolero "Pedacito de Papel," are haunting in their intimacy. They were recorded after-hours during the album sessions. González is also represented handsomely and poignantly: first by his last ever recorded solo on "Bodas de Oro," a swinging danzón from a session led by trombonist Jesús "Aguaje" Ramos; by the elegant live piano solo "Como Siento Yo"; as well as by his informal scat singing on set closer "Rubén Sings!" Lost and Found is better served as a companion volume to the painstakingly curated Buena Vista Social Club album than as a general listener's introduction to the various musicians. That said, for anyone who ever wished there was more music in the can, this all-killer, no-filler program is indispensable.

Tracklist:

01 - Bruca Manigua (feat. Ibrahim Ferrer) [Live]
02 - Macusa (feat. Eliades Ochoa, Compay Segundo)
03 - Tiene Sabor (feat. Omara Portuondo)
04 - Bodas de Oro (feat. Rubén González, Jesús Ramos)
05 - Black Chicken 37 (feat. Orlando López, Angá Díaz)
06 - Habanera (feat. Manuel Mirabal)
07 - Como Fue (feat. Ibrahim Ferrer)
08 - Guajira en F (feat. Jesús Ramos)
09 - Quiéreme Mucho (feat. Eliades Ochoa)
10 - Pedacito de Papel (feat. Eliades Ochoa)
11 - Mami Me Gustó (feat. Ibrahim Ferrer)
12 - Lágrimas Negras (feat. Omara Portuondo)
13 - Como Siento Yo (feat. Rubén González)
14 - Ruben Sings! (feat. Rubén González)

Analyzed: Buena Vista Social Club / Lost and Found
––––––––––––––––––––––––––––––––––––––––

DR Peak RMS Duration Track
––––––––––––––––––––––––––––––––––––––––
DR7 -2.01 dB -10.94 dB 5:16 01-Bruca Manigua (feat. Ibrahim Ferrer) [Live]
DR10 -1.00 dB -12.30 dB 4:05 02-Macusa (feat. Eliades Ochoa, Compay Segundo)
DR9 -2.88 dB -13.62 dB 3:18 03-Tiene Sabor (feat. Omara Portuondo)
DR10 -1.23 dB -12.71 dB 4:40 04-Bodas de Oro (feat. Rubén González, Jesús Ramos)
DR11 -1.00 dB -13.72 dB 3:33 05-Black Chicken 37 (feat. Orlando López, Angá Díaz)
DR11 -2.36 dB -15.24 dB 2:17 06-Habanera (feat. Manuel Mirabal)
DR9 -1.01 dB -11.93 dB 4:01 07-Como Fue (feat. Ibrahim Ferrer)
DR9 -1.00 dB -11.35 dB 4:21 08-Guajira en F (feat. Jesús Ramos)
DR11 -7.57 dB -22.68 dB 1:29 09-Quiéreme Mucho (feat. Eliades Ochoa)
DR12 -1.00 dB -15.44 dB 2:38 10-Pedacito de Papel (feat. Eliades Ochoa)
DR9 -1.00 dB -12.19 dB 5:18 11-Mami Me Gustó (feat. Ibrahim Ferrer)
DR9 -1.00 dB -12.08 dB 4:05 12-Lágrimas Negras (feat. Omara Portuondo)
DR12 -4.00 dB -21.43 dB 1:54 13-Como Siento Yo (feat. Rubén González)
DR14 -4.93 dB -25.95 dB 0:48 14-Ruben Sings! (feat. Rubén González)
––––––––––––––––––––––––––––––––––––––––

Number of tracks: 14
Official DR value: DR10

Samplerate: 44100 Hz
Channels: 2
Bits per sample: 24
Bitrate: 1115 kbps
Codec: FLAC
================================================================================


Thanks to the Original customer!