Buffalo Daughter - Pshychic (2003) PS3 ISO + Hi-Res FLAC

Posted By: HDAtall
Buffalo Daughter - Pshychic (2003) PS3 ISO + Hi-Res FLAC

Buffalo Daughter - Pshychic (2003) [Japan]
PS3 Rip | SACD ISO | DSD64 2.0 > 1-bit/2.8224 MHz | 51:02 minutes | Scans included | 1,6 GB
or FLAC (converted with foobar2000 to tracks) 24bit/96 kHz | Full Scans included | 1,17 GB

Buffalo Daughter is a three member group consisting of Sugar Yoshinaga, Yumiko Ohno and MoOoG Yamamoto, often augmented by a drummer and other guests. Their sound is heavily influenced by German progressive rock and techno pop, but also includes bits of dub, club, shoe gaze and post-rock influences. Given their mix and match style, and that they emerged in the mid-90s, they are often considered as part of the Shibuya-kei movement.

Tracklist:

01. Cyclic
02. Pshychic A-Go-Go
03. Chihuahua Punk
04. S.O.L.D.
05. 303 Live

foobar2000 1.5.4 / Dynamic Range Meter 1.1.1

––––––––––––––––––––––––––––––––––––––––
Analyzed: Buffalo Daughter / Pshychic
––––––––––––––––––––––––––––––––––––––––

DR Peak RMS Duration Track
––––––––––––––––––––––––––––––––––––––––
DR7 -6.02 dB -14.62 dB 10:56 01-Cyclic
DR8 -5.88 dB -16.25 dB 8:55 02-Pshychic A-Go-Go
DR9 -6.96 dB -18.40 dB 4:00 03-Chihuahua Punk
DR7 -5.91 dB -15.57 dB 7:06 04-S.O.L.D.
DR9 -5.74 dB -18.24 dB 20:05 05-303 Live
––––––––––––––––––––––––––––––––––––––––

Number of tracks: 5
Official DR value: DR8

Samplerate: 2822400 Hz / PCM Samplerate: 176400 Hz
Channels: 2
Bits per sample: 1
Bitrate: 5645 kbps
Codec: DSD64


Thanks to PS³SACD!
Uncompressed SACD ISO size > 2,12 GB
>