Henning Kraggerud, Bugge Wesseltoft - Bugge & Henning: Last Spring (2012/2014) [Official Digital Download 24-bit/96kHz]

Posted By: HDV
Henning Kraggerud, Bugge Wesseltoft - Bugge & Henning: Last Spring (2012/2014) [Official Digital Download 24-bit/96kHz]

Henning Kraggerud, Bugge Wesseltoft - Bugge & Henning: Last Spring (2012/2014)
FLAC (tracks) 24-bit/96 kHz | Time - 73:02 minutes | 1,34 GB
Studio Master, Official Digital Download | Artwork: Digital booklet

As the title implies, "Last Spring" is a revisiting of the joys of springtime. It is not an exulting, whirling awakening, but a sustained, minimalistic meditation, oriented strongly towards the details, the variance of the melodies and the breadth and beauty of the sound. It is based on the most perfect interaction possible: soft piano melts into the pizzicato melodies that Henning Kraggerud entices out of his 1744 Guarneri violin, his Harald Lund viola and his unique six-stringed viola Concorda.

Two outstanding musicians out of two worlds – Bugge Wesseltoft; one of the great jazz pianists, and Henning Kraggerud; classical violinists – came home to celebrate their memories of Norway’s spring time: longingly and dearly they tell mystical lore of light-coloured nights and dark melancholy. They present minimalistic meditations and paint a musical picture of their homeland with greatest intensity that simply fascinates.

Together, Wesseltoft and Kraggerud let time progress one season from the winter theme of 'It's snowing on my piano' and put together a sparkling program of 16 pieces with connections to spring for 'Last Spring', which is founded mostly on Norwegian folk music. The title track is based on a theme from the great Nordic Romantic Edvard Grieg which is also apparent in many of the other tracks. Alongside folk songs like 'Om Kvelden' and 'Hei hu', also called upon are indigenous composers from various ages, largely unknown to us: from Anne Haavie, deceased in 1888, and Lars Søraas the Elder, to the Danish organist Otto Mortensen, who died in 1986 and the young singer and lyrist Øyonn Groven Myhren. Then there is also an improvisation on the baroque La Folia, the oldest melodic-harmonic compositional structure, and finally a rendition of Johannes Brahms' Lullaby.

Tracklist:

01 - Blåmann (melody by Anne Haavie)
02 - Om Kvelden
03 - Margit Hjukse
04 - Stevtone
05 - Hei hu
06 - Jeg lagde meg så silde
07 - Øyonn Groven Myhren: Lilja
08 - Last Spring (based on Edvard Grieg)
09 - Byssan Lull
10 - Den fyrste song (melody by Lars Søraas senior)
11 - Gjendines Bådnlåt
12 - Maria durch ein Dornwald ging
13 - Sæterjentens Søndag (based on Ole Bull / Johann Svendsen)
14 - La Folia (Improvisation)
15 - Til Ungdommen (melody by Otto Mortensen)
16 - Johannes Brahms: Wiegenlied

Produced by Siggi Loch. Engineered, Mixed & Mastered by Jan Eric Kongshaug.
Recorded on November 22 & 23, 2011 at Rainbow Studio, Oslo, Norway.

Musicians:
Bugge Wesseltoft - piano
Henning Kraggerud - violin, viola & viola concorda

Analyzed: Henning Kraggerud & Bugge Wesseltoft / Bugge & Henning: Last Spring
––––––––––––––––––––––––––––––––––––––––

DR Peak RMS Duration Track
––––––––––––––––––––––––––––––––––––––––
DR14 -4.58 dB -22.92 dB 4:58 01-Blåmann (melody by Anne Haavie)
DR12 -4.90 dB -22.14 dB 6:12 02-Om Kvelden
DR11 -5.22 dB -21.53 dB 3:25 03-Margit Hjukse
DR11 -5.84 dB -21.86 dB 5:44 04-Stevtone
DR13 -0.25 dB -19.40 dB 3:57 05-Hei hu
DR11 -5.71 dB -21.50 dB 5:59 06-Jeg lagde meg så silde
DR13 -3.36 dB -21.02 dB 5:09 07-Øyonn Groven Myhren: Lilja
DR13 -1.20 dB -20.10 dB 5:53 08-Last Spring (based on Edvard Grieg)
DR12 -5.98 dB -21.84 dB 2:59 09-Byssan Lull
DR10 -3.47 dB -19.26 dB 3:38 10-Den fyrste song (melody by Lars Søraas senior)
DR12 -3.37 dB -20.55 dB 5:49 11-Gjendines Bådnlåt
DR12 -3.75 dB -20.57 dB 4:42 12-Maria durch ein Dornwald ging
DR14 -3.09 dB -22.16 dB 4:59 13-Sæterjentens Søndag (based on Ole Bull / Johann Svendsen)
DR11 -1.42 dB -17.43 dB 2:44 14-La Folia (Improvisation)
DR11 -4.97 dB -20.84 dB 3:43 15-Til Ungdommen (melody by Otto Mortensen)
DR10 -7.99 dB -22.74 dB 3:11 16-Johannes Brahms: Wiegenlied
––––––––––––––––––––––––––––––––––––––––

Number of tracks: 16
Official DR value: DR12

Samplerate: 96000 Hz
Channels: 2
Bits per sample: 24
Bitrate: 2351 kbps
Codec: FLAC
================================================================================


Thanks to the Original customer!