Butch Walker - Stay Gold (2016) [Official Digital Download 24-bit/96kHz]

Posted By: HDV
Butch Walker - Stay Gold (2016) [Official Digital Download 24-bit/96kHz]

Butch Walker - Stay Gold (2016)
FLAC (tracks) 24-bit/96 kHz | Time - 43:12 minutes | 984 MB
Studio Master, Official Digital Download | Artwork: Front cover

Bradley Glenn "Butch" Walker is an American singer, songwriter, and record producer. He was the lead guitarist for the glam metal band SouthGang from the late 1980s to early 1990s as well as the lead vocalist and guitarist for rock band Marvelous 3 from 1997 until 2001. "Stay Gold" is his eighth full-length studio solo album. As Walker enters this new phase of his career, one marked perhaps more by an appreciation of his own work rather than the work he does with others, "Stay Gold", with its many brilliant moments, lights the way.

Butch Walker is a guy who wants it both ways – he wants to write personal songs full of telling details and anecdotes, but he also wants them to sound like anthems that will fill up arenas and burst out of the radio. Walker has done more than his share of creative shape-shifting since he launched his solo career in 2004, and on 2016's Stay Gold, he sounds like this year's goal is to be Bruce Springsteen, with Keith Richards playing guitar and lending occasional melodic advice. Walker's grand scale heartland rock, seasoned with the swagger of an overgrown street kid, sounds pretty convincing on Stay Gold, though the snarky guy looking for cheap weed and good times on the title cut doesn't sound the same as the lovelorn dude wearing his heart on his sleeve on "Descending." Walker has enjoyed a successful side career as a producer and songwriter, and he and Ryan Adams (credited as "overall album concept co-conspirator") have made a record that's rollicking and slick at the same time, and if the details that are supposed to make numbers like "Mexican Coke" and "Record Store" come to life seem more forced than sincere, you can't deny that Walker has put plenty of sweat and elbow grease into this. Some songwriters sound as if they're talking to you heart to heart, while others seem to be reading you a story that they've been tinkering with for a few months. On Stay Gold, Walker falls into the latter camp, but if these songs lack a certain spontaneity, the craft is strong and Walker seems so eager to sound like a rock star that you just might mistake him for the real thing.


01 - Stay Gold
02 - East Coast Girl
03 - Wilder in the Heart
04 - Ludlow Expectations
05 - Descending
06 - Irish Exit
07 - Mexican Coke
08 - Can We Just Not Talk About Last Night
09 - Spark: Lost
10 - Record Store

Analyzed: Butch Walker / Stay Gold

DR Peak RMS Duration Track
DR5 -1.24 dB -7.42 dB 3:58 01-Stay Gold
DR5 -1.25 dB -7.12 dB 4:18 02-East Coast Girl
DR5 -1.21 dB -6.90 dB 3:49 03-Wilder in the Heart
DR5 -1.24 dB -6.80 dB 4:48 04-Ludlow Expectations
DR5 -1.22 dB -9.12 dB 4:16 05-Descending
DR6 -1.24 dB -7.46 dB 3:58 06-Irish Exit
DR5 -1.20 dB -7.28 dB 4:11 07-Mexican Coke
DR5 -1.23 dB -7.70 dB 4:28 08-Can We Just Not Talk About Last Night
DR5 -1.22 dB -7.44 dB 4:30 09-Spark: Lost
DR6 -1.25 dB -9.81 dB 4:56 10-Record Store

Number of tracks: 10
Official DR value: DR5

Samplerate: 96000 Hz
Channels: 2
Bits per sample: 24
Bitrate: 2702 kbps
Codec: FLAC

Thanks to the Original customer!