Can - SACD Remastered Collection (13x SACD 1968-1989) PS3 ISO + FLAC {RE-UP}

Posted By: HDAtall
Can - SACD Remastered Collection (13x SACD 1968-1989) PS3 ISO + FLAC {RE-UP}

Can - SACD Remastered Collection (13x SACD 1968-1989)
PS3 Rip | SACD ISO | DSD64 2.0 > 1-bit/2.8224 MHz | Scans included | 18,7 GB
FLAC (tracks) 24 bit/88,2 kHz | 2.0 Stereo | 576:19 mins | Scans included | 12,4 GB
Include 13 albums | Spoon Records, U.K., Ltd. | Featuring the Remasters 2004 - 2006

Can was an experimental rock band formed in Cologne, West Germany in 1968. Later labeled as one of the first krautrock groups, they transcended mainstream influences and incorporated strong minimalist and world music elements into their often psychedelic music.

Always at least three steps ahead of contemporary popular music, Can were the leading avant-garde rock group of the '70s. From their very beginning, their music didn't conform to any commonly held notions about rock & roll – not even those of the countercultures. Inspired more by 20th century classical music than Chuck Berry, their closest contemporaries were Frank Zappa or possibly the Velvet Underground. Yet their music was more serious and inaccessible than either of those artists. Instead of recording tight pop songs or satire, Can experimented with noise, synthesizers, nontraditional music, cut-and-paste techniques, and, most importantly, electronic music; each album marked a significant step forward from the previous album, investigating new territories that other rock bands weren't interested in exploring.
Throughout their career, Can's lineup was fluid, featuring several different vocalists over the years; the core bandmembers remained keyboardist Irmin Schmidt, drummer Jaki Leibezeit, guitarist Michael Karoli, and bassist Holger Czukay. During the '70s, they were extremely prolific, recording as many as three albums a year at the height of their career. Apart from a surprise U.K. Top 30 hit in 1978 – "I Want More" – they were never much more than a cult band; even critics had a hard time appreciating their music.
Monster Movie
Can debuted in 1969 with the primitive, bracing Monster Movie, the only full-length effort to feature American-born vocalist Malcolm Mooney. 1970's Soundtracks, a collection of film music, introduced Japanese singer Kenji "Damo" Suzuki, and featured "Mother Sky," one of the group's best-known compositions. With 1971's two-record set Tago Mago, Can hit their visionary stride, shedding the constraints of pop forms and structures to explore long improvisations, angular rhythms, and experimental textures.
Ege Bamyasi
1972's Ege Bamayasi refined the approach, and incorporated an increasingly jazz-like sensibility into the mix; Future Days, recorded the following year as Suzuki's swan song, traveled even further afield into minimalist, almost ambient territory. With 1974's Soon Over Babaluma, Can returned to more complicated and abrasive ground, introducing dub rhythms as well as Karoli's shrieking violin. 1976's Unlimited Edition and 1977's Saw Delight proved equally restless, and drew on a wide range of ethnic musics.
Flow Motion
When the band split in 1978 following the success of the album Flow Motion and the hit "I Want More," they left behind a body of work that has proven surprisingly groundbreaking; echoes of Can's music can be heard in Public Image Limited, the Fall, and Einst├╝rzende Neubauten, among others. As with much aggressive and challenging experimental music, Can's music can be difficult to appreciate, yet their albums offer some of the best experimental rock ever recorded.


Can - SACD Remastered Collection (13x SACD 1968-1989) PS3 ISO + FLAC {RE-UP}

Can - Monster Movie (1969) [2004 Remaster]
PS3 Rip | ISO | SACD DSD64 2.0 > 1-bit/2.8224 MHz | Scans included | 1,21 GB (1,53 GB)
SACD-ISO PS3 Rip to FLAC 2.0 | 24 bit / 88,2 kHz | 38:00 min | Scans included | 789 MB

Tracklist:

01. Father Cannot Yell
02. Mary, Mary So Contrary
03. Outside My Door
04. Yoo Doo Right

foobar2000 1.1.15 / Dynamic Range Meter 1.1.1

––––––––––––––––––––––––––––––––––––––––
Analyzed: CAN / MONSTER MOVIE
––––––––––––––––––––––––––––––––––––––––

DR Peak RMS Duration Track
––––––––––––––––––––––––––––––––––––––––
DR11 -6.55 dB -19.49 dB 7:03 01-Father Cannot Yell
DR11 -7.11 dB -20.45 dB 6:19 02-Mary, Mary So Contrary
DR10 -7.02 dB -19.02 dB 4:08 03-Outside My Door
DR11 -6.44 dB -20.08 dB 20:30 04-Yoo Doo Right
––––––––––––––––––––––––––––––––––––––––

Number of tracks: 4
Official DR value: DR11

Samplerate: 2822400 Hz / PCM Samplerate: 88200 Hz
Channels: 2
Bits per sample: 24
Bitrate: 5645 kbps
Codec: DSD64



–––––––––––––––––––––––––––––––––––––––––––––––––––

Can - SACD Remastered Collection (13x SACD 1968-1989) PS3 ISO + FLAC {RE-UP}

Can - Soundtracks (1970) [2004 Remaster]
PS3 Rip | ISO | SACD DSD64 2.0 > 1-bit/2.8224 MHz | Scans included | 1,17 GB (1,41 GB)
SACD-ISO PS3 Rip to FLAC 2.0 | 24 bit / 88,2 kHz | 35:09 min | Scans included | 759 MB

Tracklist:

01. Deadlock
02. Tango Whiskyman
03. Deadlock
04. Don't turn the Light on, leave me alone
05. Soul Desert
06. Mother Sky
07. She brings the Rain

foobar2000 1.1.15 / Dynamic Range Meter 1.1.1

––––––––––––––––––––––––––––––––––––––––
Analyzed: CAN / SOUNDTRACKS
––––––––––––––––––––––––––––––––––––––––

DR Peak RMS Duration Track
––––––––––––––––––––––––––––––––––––––––
DR9 -5.05 dB -16.15 dB 3:25 01-Deadlock
DR9 -4.71 dB -17.02 dB 4:03 02-Tango Whiskyman
DR9 -4.81 dB -16.79 dB 1:40 03-Deadlock
DR10 -4.80 dB -16.67 dB 3:42 04-Don't turn the Light on, leave me alone
DR10 -4.68 dB -16.22 dB 3:46 05-Soul Desert
DR9 -4.71 dB -14.94 dB 14:29 06-Mother Sky
DR11 -5.07 dB -18.45 dB 4:05 07-She brings the Rain
––––––––––––––––––––––––––––––––––––––––

Number of tracks: 7
Official DR value: DR10

Samplerate: 2822400 Hz / PCM Samplerate: 88200 Hz
Channels: 2
Bits per sample: 24
Bitrate: 5645 kbps
Codec: DSD64



–––––––––––––––––––––––––––––––––––––––––––––––––––

Can - SACD Remastered Collection (13x SACD 1968-1989) PS3 ISO + FLAC {RE-UP}

Can - Tago Mago (1971) [2004 Remaster]
PS3 Rip | ISO | SACD DSD64 2.0 > 1-bit/2.8224 MHz | Scans included | 2,31 GB (2,94 GB)
SACD-ISO PS3 Rip to FLAC 2.0 | 24 bit / 88,2 kHz | 73:18 min | Scans included | 1,5 GB

Tracklist:

01. Paperhouse
02. Mushroom
03. Oh Yeah
04. Halleluwah
05. Aumgn
06. Peking O
07. Bring Me Coffee Or Tea

foobar2000 1.1.15 / Dynamic Range Meter 1.1.1

––––––––––––––––––––––––––––––––––––––––
Analyzed: CAN / TAGO MAGO
––––––––––––––––––––––––––––––––––––––––

DR Peak RMS Duration Track
––––––––––––––––––––––––––––––––––––––––
DR11 -6.60 dB -20.75 dB 7:29 01-Paperhouse
DR10 -6.56 dB -18.24 dB 4:04 02-Mushroom
DR11 -6.66 dB -20.18 dB 7:22 03-Oh Yeah
DR10 -6.47 dB -19.24 dB 18:31 04-Halleluwah
DR9 -6.57 dB -19.11 dB 17:30 05-Aumgn
DR11 -6.65 dB -20.81 dB 11:36 06-Peking O
DR12 -7.11 dB -21.16 dB 6:47 07-Bring Me Coffee Or Tea
––––––––––––––––––––––––––––––––––––––––

Number of tracks: 7
Official DR value: DR11

Samplerate: 2822400 Hz / PCM Samplerate: 88200 Hz
Channels: 2
Bits per sample: 24
Bitrate: 5645 kbps
Codec: DSD64



–––––––––––––––––––––––––––––––––––––––––––––––––––

Can - SACD Remastered Collection (13x SACD 1968-1989) PS3 ISO + FLAC {RE-UP}

Can - Ege Bamyasi (1972) [2004 Remaster]
PS3 Rip | ISO | SACD DSD64 2.0 > 1-bit/2.8224 MHz | Scans included | 1,27 GB (1,61 GB)
SACD-ISO PS3 Rip to FLAC 2.0 | 24 bit / 88,2 kHz | 40:06 min | Scans included | 868 MB

Tracklist:

01. Pich
02. Sing Swan Song
03. One More Night
04. Vitamin C
05. Soup
06. I'm so green
07. Spoon

foobar2000 1.1.15 / Dynamic Range Meter 1.1.1

––––––––––––––––––––––––––––––––––––––––
Analyzed: CAN / EGE BAMYASI
––––––––––––––––––––––––––––––––––––––––

DR Peak RMS Duration Track
––––––––––––––––––––––––––––––––––––––––
DR11 -6.49 dB -20.09 dB 9:30 01-Pich
DR10 -6.64 dB -19.15 dB 4:47 02-Sing Swan Song
DR11 -6.58 dB -18.83 dB 5:34 03-One More Night
DR13 -6.53 dB -22.64 dB 3:32 04-Vitamin C
DR11 -6.51 dB -20.73 dB 10:32 05-Soup
DR8 -6.51 dB -16.92 dB 3:04 06-I'm so green
DR10 -6.65 dB -19.40 dB 3:07 07-Spoon
––––––––––––––––––––––––––––––––––––––––

Number of tracks: 7
Official DR value: DR10

Samplerate: 2822400 Hz / PCM Samplerate: 88200 Hz
Channels: 2
Bits per sample: 24
Bitrate: 5645 kbps
Codec: DSD64



–––––––––––––––––––––––––––––––––––––––––––––––––––

Can - SACD Remastered Collection (13x SACD 1968-1989) PS3 ISO + FLAC {RE-UP}

Can - Future Days (1973) [2005 Remaster]
PS3 Rip | ISO | SACD DSD64 2.0 > 1-bit/2.8224 MHz | Scans included | 1,33 GB (1,64 GB)
SACD-ISO PS3 Rip to FLAC 2.0 | 24 bit / 88,2 kHz | 40:57 min | Scans included | 917 MB

Tracklist:

01. Future Days
02. Spray
03. Moonshake
04. Bel Air

foobar2000 1.1.15 / Dynamic Range Meter 1.1.1

––––––––––––––––––––––––––––––––––––––––
Analyzed: CAN / FUTURE DAYS
––––––––––––––––––––––––––––––––––––––––

DR Peak RMS Duration Track
––––––––––––––––––––––––––––––––––––––––
DR11 -3.95 dB -18.85 dB 9:31 01-Future Days
DR12 -2.47 dB -17.43 dB 8:29 02-Spray
DR12 -2.71 dB -17.02 dB 3:04 03-Moonshake
DR10 -3.26 dB -16.45 dB 19:53 04-Bel Air
––––––––––––––––––––––––––––––––––––––––

Number of tracks: 4
Official DR value: DR11

Samplerate: 2822400 Hz / PCM Samplerate: 88200 Hz
Channels: 2
Bits per sample: 24
Bitrate: 5645 kbps
Codec: DSD64



–––––––––––––––––––––––––––––––––––––––––––––––––––

Can - SACD Remastered Collection (13x SACD 1968-1989) PS3 ISO + FLAC {RE-UP}

Can - Soon Over Babaluma (1974) [2005 Remaster]
PS3 Rip | ISO | SACD DSD64 2.0 > 1-bit/2.8224 MHz | Scans included | 1,25 GB (1,55 GB)
SACD-ISO PS3 Rip to FLAC 2.0 | 24 bit / 88,2 kHz | 38:50 min | Scans included | 854 MB

Tracklist:

01. Dizzy Dizzy
02. Come sta, La Luna
03. Splash
04. Chain Reaction
05. Quantum Physics

foobar2000 1.1.15 / Dynamic Range Meter 1.1.1

––––––––––––––––––––––––––––––––––––––––
Analyzed: CAN / SOON OVER BABALUMA
––––––––––––––––––––––––––––––––––––––––

DR Peak RMS Duration Track
––––––––––––––––––––––––––––––––––––––––
DR10 -2.34 dB -15.97 dB 5:41 01-Dizzy Dizzy
DR11 -4.02 dB -17.33 dB 5:43 02-Come sta, La Luna
DR10 -2.52 dB -15.58 dB 7:46 03-Splash
DR11 -2.41 dB -16.39 dB 11:09 04-Chain Reaction
DR15 -4.00 dB -23.73 dB 8:31 05-Quantum Physics
––––––––––––––––––––––––––––––––––––––––

Number of tracks: 5
Official DR value: DR12

Samplerate: 2822400 Hz / PCM Samplerate: 88200 Hz
Channels: 2
Bits per sample: 24
Bitrate: 5645 kbps
Codec: DSD64



–––––––––––––––––––––––––––––––––––––––––––––––––––

Can - SACD Remastered Collection (13x SACD 1968-1989) PS3 ISO + FLAC {RE-UP}

Can - Landed (1975) [2005 Remaster]
PS3 Rip | ISO | SACD DSD64 2.0 > 1-bit/2.8224 MHz | Scans included | 1,3 GB (1,61 GB)
SACD-ISO PS3 Rip to FLAC 2.0 | 24 bit / 88,2 kHz | 40:18 min | Scans included | 875 MB

Tracklist:

01. Full Moon On The Highway
02. Half Past One
03. Hunters And Collectors
04. Vernal Equinox
05. Red Hot Indians
06. Unfinished

foobar2000 1.1.15 / Dynamic Range Meter 1.1.1

––––––––––––––––––––––––––––––––––––––––
Analyzed: CAN / L A N D E D
––––––––––––––––––––––––––––––––––––––––

DR Peak RMS Duration Track
––––––––––––––––––––––––––––––––––––––––
DR10 -4.14 dB -15.49 dB 3:32 01-Full Moon On The Highway
DR11 -4.22 dB -18.10 dB 4:39 02-Half Past One
DR11 -4.69 dB -18.14 dB 4:20 03-Hunters And Collectors
DR9 -4.09 dB -15.34 dB 8:48 04-Vernal Equinox
DR10 -4.09 dB -16.09 dB 5:38 05-Red Hot Indians
DR12 -4.25 dB -20.16 dB 13:21 06-Unfinished
––––––––––––––––––––––––––––––––––––––––

Number of tracks: 6
Official DR value: DR11

Samplerate: 2822400 Hz / PCM Samplerate: 88200 Hz
Channels: 2
Bits per sample: 24
Bitrate: 5645 kbps
Codec: DSD64



–––––––––––––––––––––––––––––––––––––––––––––––––––

Can - SACD Remastered Collection (13x SACD 1968-1989) PS3 ISO + FLAC {RE-UP}

Can - Unlimited Edition (1976) [2005 Remaster]
PS3 Rip | ISO | SACD DSD64 2.0 > 1-bit/2.8224 MHz | Scans included | 2,47 GB (3,1 GB)
SACD-ISO PS3 Rip to FLAC 2.0 | 24 bit / 88,2 kHz | 77:32 min | Scans included | 1,61 GB

Tracklist:

01. Gomorrah
02. Doko E
03. LH 702
04. I'm Too Leise
05. Musette
06. Blue Back (Inside Paper)
07. E F S No. 27
08. TV Spot
09. E F S No. 7
10. The Empress And The Ukraine King
11. E F S No. 10
12. Mother Upduff
13. E F S No. 36
14. Cutaway
15. Connection
16. Fall of Another Year
17. E F S No. 8
18. Transcentdental Express
19. Ibis

foobar2000 1.1.15 / Dynamic Range Meter 1.1.1

––––––––––––––––––––––––––––––––––––––––
Analyzed: CAN / UNLIMITED EDITION
––––––––––––––––––––––––––––––––––––––––

DR Peak RMS Duration Track
––––––––––––––––––––––––––––––––––––––––
DR10 -4.20 dB -17.09 dB 5:46 01-Gomorrah
DR18 -4.07 dB -24.85 dB 2:28 02-Doko E
DR13 -4.19 dB -20.38 dB 2:14 03-LH 702
DR11 -4.05 dB -18.12 dB 5:11 04-I'm Too Leise
DR16 -4.50 dB -29.35 dB 2:14 05-Musette
DR15 -4.40 dB -23.83 dB 1:18 06-Blue Back (Inside Paper)
DR11 -4.08 dB -19.56 dB 1:49 07-E F S No. 27
DR11 -3.84 dB -16.62 dB 3:03 08-TV Spot
DR12 -4.15 dB -17.63 dB 1:07 09-E F S No. 7
DR9 -3.39 dB -13.83 dB 4:42 10-The Empress And The Ukraine King
DR13 -4.49 dB -20.89 dB 2:02 11-E F S No. 10
DR9 -4.07 dB -15.12 dB 4:30 12-Mother Upduff
DR12 -4.49 dB -18.39 dB 1:58 13-E F S No. 36
DR12 -3.96 dB -20.26 dB 17:11 14-Cutaway
DR8 -3.91 dB -13.50 dB 2:59 15-Connection
DR10 -4.34 dB -15.87 dB 3:24 16-Fall of Another Year
DR10 -4.41 dB -17.11 dB 1:37 17-E F S No. 8
DR14 -3.75 dB -19.93 dB 4:40 18-Transcentdental Express
DR10 -3.93 dB -18.34 dB 9:20 19-Ibis
––––––––––––––––––––––––––––––––––––––––

Number of tracks: 19
Official DR value: DR12

Samplerate: 2822400 Hz / PCM Samplerate: 88200 Hz
Channels: 2
Bits per sample: 24
Bitrate: 5645 kbps
Codec: DSD64



–––––––––––––––––––––––––––––––––––––––––––––––––––

Can - SACD Remastered Collection (13x SACD 1968-1989) PS3 ISO + FLAC {RE-UP}

Can - Flow Motion (1976) [2006 Remaster]
PS3 Rip | ISO | SACD DSD64 2.0 > 1-bit/2.8224 MHz | Scans included | 1,24 GB (1,52 GB)
SACD-ISO PS3 Rip to FLAC 2.0 | 24 bit / 88,2 kHz | 37:47 min | Scans included | 860 MB

Tracklist:

01. I Want More
02. Cascade Waltz
03. Laugh Till You Cry, Live Till You Die
04. …….. And More
05. Babylonian Pearl
06. Smoke (E.F.S. No. 59)
07. Flow Motion

foobar2000 1.1.15 / Dynamic Range Meter 1.1.1

––––––––––––––––––––––––––––––––––––––––
Analyzed: CAN / FLOW MOTION
––––––––––––––––––––––––––––––––––––––––

DR Peak RMS Duration Track
––––––––––––––––––––––––––––––––––––––––
DR10 -3.63 dB -16.17 dB 3:31 01-I Want More
DR11 -3.77 dB -17.85 dB 5:36 02-Cascade Waltz
DR14 -3.57 dB -18.61 dB 6:38 03-Laugh Till You Cry, Live Till You Die
DR11 -3.57 dB -16.50 dB 2:46 04-…….. And More
DR12 -3.57 dB -16.83 dB 3:28 05-Babylonian Pearl
DR7 -3.56 dB -12.16 dB 5:16 06-Smoke (E.F.S. No. 59)
DR11 -3.49 dB -15.98 dB 10:30 07-Flow Motion
––––––––––––––––––––––––––––––––––––––––

Number of tracks: 7
Official DR value: DR11

Samplerate: 2822400 Hz / PCM Samplerate: 88200 Hz
Channels: 2
Bits per sample: 24
Bitrate: 5645 kbps
Codec: DSD64



–––––––––––––––––––––––––––––––––––––––––––––––––––

Can - SACD Remastered Collection (13x SACD 1968-1989) PS3 ISO + FLAC {RE-UP}

Can - Saw Delight (1977) [2006 Remaster]
PS3 Rip | ISO | SACD DSD64 2.0 > 1-bit/2.8224 MHz | Scans included | 1,26 GB (1,53 GB)
SACD-ISO PS3 Rip to FLAC 2.0 | 24 bit / 88,2 kHz | 37:48 min | Scans included | 896 MB

Tracklist:

01. Don`t Say No
02. Sunshine Day And Night
03. Call Me
04. Animal Waves
05. Fly By Night

foobar2000 1.1.15 / Dynamic Range Meter 1.1.1

––––––––––––––––––––––––––––––––––––––––
Analyzed: CAN / SAW DELIGHT
––––––––––––––––––––––––––––––––––––––––

DR Peak RMS Duration Track
––––––––––––––––––––––––––––––––––––––––
DR10 -3.50 dB -15.52 dB 6:33 01-Don`t Say No
DR10 -4.23 dB -16.13 dB 5:51 02-Sunshine Day And Night
DR9 -4.18 dB -15.27 dB 5:49 03-Call Me
DR10 -2.81 dB -16.04 dB 15:26 04-Animal Waves
DR10 -4.11 dB -15.91 dB 4:09 05-Fly By Night
––––––––––––––––––––––––––––––––––––––––

Number of tracks: 5
Official DR value: DR10

Samplerate: 2822400 Hz / PCM Samplerate: 88200 Hz
Channels: 2
Bits per sample: 24
Bitrate: 5645 kbps
Codec: DSD64



–––––––––––––––––––––––––––––––––––––––––––––––––––

Can - SACD Remastered Collection (13x SACD 1968-1989) PS3 ISO + FLAC {RE-UP}

Can - CAN (1979) [2006 Remaster]
PS3 Rip | ISO | SACD DSD64 2.0 > 1-bit/2.8224 MHz | Scans included | 1,31 GB (1,58 GB)
SACD-ISO PS3 Rip to FLAC 2.0 | 24 bit / 88,2 kHz |39:16 min | Scans included | 912 MB

Tracklist:

01. All Gates Open
02. Safe
03. Sunday Jam
04. Sodom
05. Aspectacle
06. E.F.S. No. 99 : "CAN CAN"
07. Ping Pong
08. Can Be

foobar2000 1.1.15 / Dynamic Range Meter 1.1.1

––––––––––––––––––––––––––––––––––––––––
Analyzed: CAN / C A N
––––––––––––––––––––––––––––––––––––––––

DR Peak RMS Duration Track
––––––––––––––––––––––––––––––––––––––––
DR10 -3.48 dB -15.68 dB 8:17 01-All Gates Open
DR10 -3.38 dB -14.80 dB 8:36 02-Safe
DR9 -2.51 dB -13.46 dB 4:27 03-Sunday Jam
DR9 -3.52 dB -15.78 dB 5:41 04-Sodom
DR12 -3.62 dB -17.36 dB 5:49 05-Aspectacle
DR9 -2.61 dB -13.31 dB 3:10 06-E.F.S. No. 99 : "CAN CAN"
DR23 -11.17 dB -37.24 dB 0:22 07-Ping Pong
DR10 -2.99 dB -15.09 dB 2:54 08-Can Be
––––––––––––––––––––––––––––––––––––––––

Number of tracks: 8
Official DR value: DR11

Samplerate: 2822400 Hz / PCM Samplerate: 88200 Hz
Channels: 2
Bits per sample: 24
Bitrate: 5645 kbps
Codec: DSD64



–––––––––––––––––––––––––––––––––––––––––––––––––––

Can - SACD Remastered Collection (13x SACD 1968-1989) PS3 ISO + FLAC {RE-UP}

Can - Delay 1968 (1981) [2006 Remaster]
PS3 Rip | ISO | SACD DSD64 2.0 > 1-bit/2.8224 MHz | Scans included | 1,2 GB (1,43 GB)
SACD-ISO PS3 Rip to FLAC 2.0 | 24 bit / 88,2 kHz | 35:41 min | Scans included | 824 MB

Tracklist:

01. Butterfly
02. Pnoom
03. Nineteen Century Man
04. Thief
05. Man named Joe
06. Uphill
07. Little Star of Bethlehem

foobar2000 1.1.15 / Dynamic Range Meter 1.1.1

––––––––––––––––––––––––––––––––––––––––
Analyzed: CAN / DELAY 1968
––––––––––––––––––––––––––––––––––––––––

DR Peak RMS Duration Track
––––––––––––––––––––––––––––––––––––––––
DR8 -3.59 dB -14.05 dB 8:18 01-Butterfly
DR14 -4.08 dB -19.68 dB 0:26 02-Pnoom
DR9 -2.56 dB -13.89 dB 4:17 03-Nineteen Century Man
DR10 -3.63 dB -15.12 dB 5:02 04-Thief
DR11 -2.26 dB -16.16 dB 3:54 05-Man named Joe
DR10 -3.91 dB -15.65 dB 6:39 06-Uphill
DR11 -3.49 dB -15.71 dB 7:06 07-Little Star of Bethlehem
––––––––––––––––––––––––––––––––––––––––

Number of tracks: 7
Official DR value: DR10

Samplerate: 2822400 Hz / PCM Samplerate: 88200 Hz
Channels: 2
Bits per sample: 24
Bitrate: 5645 kbps
Codec: DSD64



–––––––––––––––––––––––––––––––––––––––––––––––––––

Can - SACD Remastered Collection (13x SACD 1968-1989) PS3 ISO + FLAC {RE-UP}

Can - Rite Time (1989) [2006 Remaster]
PS3 Rip | ISO | SACD DSD64 2.0 > 1-bit/2.8224 MHz | Scans included | 1,4 GB (1,68 GB)
SACD-ISO PS3 Rip to FLAC 2.0 | 24 bit / 88,2 kHz | 41:37 min | Scans included | 948 MB

Tracklist:

01. On the Beautiful Side of a Romance
02. The Withoutlaw Man
03. Below This Level (Patient's Song)
04. Movin' Right Along
05. Like a New Child
06. Hoolah Hoolah
07. Give the Drummer Some
08. In the Distance Lies the Future

foobar2000 1.1.15 / Dynamic Range Meter 1.1.1

––––––––––––––––––––––––––––––––––––––––
Analyzed: CAN / RITE TIME
––––––––––––––––––––––––––––––––––––––––

DR Peak RMS Duration Track
––––––––––––––––––––––––––––––––––––––––
DR7 -3.67 dB -13.21 dB 7:25 01-ON THE BEAUTIFUL SIDE OF A ROMANCE
DR9 -4.71 dB -14.99 dB 4:16 02-THE WITHOUTLAW MAN
DR8 -3.70 dB -13.97 dB 3:43 03-BELOW THIS LEVEL (PATIENT'S SONG)
DR8 -3.67 dB -13.62 dB 3:24 04-MOVIN` RIGHT ALONG
DR7 -4.59 dB -14.09 dB 7:35 05-LIKE A NEW CHILD
DR8 -3.74 dB -12.94 dB 4:30 06-HOOLAH HOOLAH
DR11 -3.75 dB -15.71 dB 6:44 07-GIVE THE DRUMMER SOME
DR9 -3.74 dB -14.79 dB 4:00 08-IN THE DISTANCE LIES THE FUTURE
––––––––––––––––––––––––––––––––––––––––

Number of tracks: 8
Official DR value: DR8

Samplerate: 2822400 Hz / PCM Samplerate: 88200 Hz
Channels: 2
Bits per sample: 24
Bitrate: 5645 kbps
Codec: DSD64



Thanks to SergeyVP!