Carsten Dahl Experience - Caleidoscopia (2016) [Official Digital Download 24/96]

Posted By: HDV
Carsten Dahl Experience - Caleidoscopia (2016) [Official Digital Download 24/96]

Carsten Dahl Experience - Caleidoscopia (2016)
FLAC (tracks) 24-bit/96 kHz | Time - 46:04 minutes | 994 MB
Studio Master, Official Digital Download | Artwork: Front cover

Danish jazz pianist Carsten Dahl and his bandmates reach for higher and more complicated ground in order to bring forward surprises on Caleidoscopia, their fourth album since 2007. It’s improvisational jazz at its best, the music multiplying and splitting up in colourful patterns that rearrange themselves into ever-varying themes and motifs, like the myriad colours and shifting designs seen through a kaleidoscope.

Pianist Carsten Dahl states that he finds his most recent group “the most challenging and innovative musical constellation I ever recorded and played with in my musical life”. The inspiration is palpable on this recording of originals. The most palpable ingredient seems to be Zeuthen, as his alto sax has a vibrato as wide as Sidney Bechet’s, making it extremely emotive as on the sighing “Nora” and yearning “Beautiful”. The rhythm section shows its integrity on the scattering “Furious” and free form “STOP please STOP” which is accentuated by Zeuthen’s brash horn. The team shows its Monk devotion on”Experience This” while sharpening its edges on “Outside From the Inside. The graceful duet between Dahl and Zeuthen on “ I’m Calling” is a perfect mix of the fragile yet warmly wavering sax and Dahl’s romantic yet firm hand. A whole album of this would be a real treat, but what we have all through is nothing shy away from.

Tracklist:

01 - Nora
02 - Furious
03 - Caleidoscopia
04 - The Canvas
05 - Stop Please Stop
06 - Outside from the Inside
07 - I'm Calling
08 - Experience This!
09 - Beautiful

Musicians:
Carsten Dahl - piano
Jesper Zeuthen - alto saxophone
Nils Davidsen - bass
Stefan Pasborg - drums


Analyzed: Carsten Dahl Experience / Caleidoscopia
––––––––––––––––––––––––––––––––––––––––

DR Peak RMS Duration Track
––––––––––––––––––––––––––––––––––––––––
DR12 -0.20 dB -15.15 dB 5:40 01-Nora
DR11 -0.20 dB -13.66 dB 3:58 02-Furious
DR14 -1.48 dB -20.00 dB 6:06 03-Caleidoscopia
DR12 -0.20 dB -14.91 dB 4:50 04-The Canvas
DR12 -0.20 dB -15.70 dB 2:39 05-Stop Please Stop
DR11 -0.20 dB -16.11 dB 7:10 06-Outside from the Inside
DR12 -3.44 dB -20.52 dB 4:07 07-I'm Calling
DR12 -0.20 dB -14.63 dB 5:44 08-Experience This!
DR14 -0.20 dB -16.26 dB 5:48 09-Beautiful
––––––––––––––––––––––––––––––––––––––––

Number of tracks: 9
Official DR value: DR12

Samplerate: 96000 Hz
Channels: 2
Bits per sample: 24
Bitrate: 3024 kbps
Codec: FLAC
================================================================================


Thanks to the Original customer!