Subcategories

Charlie Parr - Dog (2017) [Official Digital Download 24-bit/96kHz]

Posted By: HDV
Charlie Parr - Dog (2017) [Official Digital Download 24-bit/96kHz]

Charlie Parr - Dog (2017)
FLAC (tracks) 24-bit/96 kHz | Time - 44:29 minutes | 982 MB
Studio Master, Official Digital Download | Artwork: Front cover

Charlie Parr is a singular songwriter who has built a dedicated grassroots following for his haunting, topical songs and virtuosic picking, not to mention the fact that he’s on the road 300 days a year. Based in Duluth, MN, Parr’s inspiration is drawn from the alternately fertile and frozen soil of Minnesota; his songs exude a Midwestern sensibility and humility. The combination of growing up with both of his parents working proud union jobs in an industrial meat factory and his largely rural environment had a broad impact on Parr’s writing. His second full album for Red House, Dog, is “about folks trying to get along when the atmosphere around them makes it diffi cult,” Parr says, who was going through a hard ti me in his life when the album was being recorded.


Based in Duluth, MN, Parr's inspiration is drawn from the alternately fertile and frozen soil of Minnesota; his songs exude a Midwestern sensibility and humility. The combination of growing up with both of his parents working proud union jobs in an industrial meat factory and his largely rural environment had a broad impact on Parr s writing.His second full album for Red House, Dog, is about folks trying to get along when the atmosphere around them makes it difficult, Parr says, who was going through a hard time in his life when the album was being recorded. He writes first person narratives as a HoBo, a hoarder who's about to get evicted ( Pleasant Valley ), and a man who'd like to be appreciated before his funeral, not after ( I Ain't Dead Yet ).Sometimes darkly funny, sometimes just plain dark, it's a brilliant, rawly emotional album that's moving as all hell.

Tracklist:

01 - HoBo
02 - Dog
03 - Salt Water
04 - LowDown
05 - Sometimes I'm Alright
06 - Rich Food and Easy Living
07 - I Ain't Dead Yet
08 - Boiling Down Silas
09 - Another Dog
10 - Peaceful Valley

Analyzed: Charlie Parr / Dog
––––––––––––––––––––––––––––––––––––––––

DR Peak RMS Duration Track
––––––––––––––––––––––––––––––––––––––––
DR8 -1.00 dB -11.07 dB 4:05 01-HoBo
DR7 -1.00 dB -9.46 dB 4:00 02-Dog
DR7 -1.00 dB -10.61 dB 5:57 03-Salt Water
DR8 -1.00 dB -10.59 dB 2:15 04-LowDown
DR14 -1.18 dB -19.62 dB 4:48 05-Sometimes I'm Alright
DR11 -1.00 dB -15.67 dB 5:54 06-Rich Food and Easy Living
DR7 -1.00 dB -9.85 dB 3:35 07-I Ain't Dead Yet
DR9 -1.00 dB -12.48 dB 5:00 08-Boiling Down Silas
DR7 -1.00 dB -9.99 dB 4:49 09-Another Dog
DR5 -1.00 dB -7.45 dB 4:05 10-Peaceful Valley
––––––––––––––––––––––––––––––––––––––––

Number of tracks: 10
Official DR value: DR8

Samplerate: 96000 Hz
Channels: 2
Bits per sample: 24
Bitrate: 3028 kbps
Codec: FLAC
================================================================================


Thanks to the Original customer!