Concerto Copenhagen - The Four Seasons After Vivaldi (2019) [Official Digital Download 24/192]

Posted By: El Misha
Concerto Copenhagen - The Four Seasons After Vivaldi (2019) [Official Digital Download 24/192]

Concerto Copenhagen - The Four Seasons After Vivaldi (2019)
FLAC (tracks) 24-bit/192 kHz | Time - 01:06:44 | 2.24 GB
Studio Master, Official Digital Download | Artwork: Front cover+digital booklet

Danish National Baroque Orchestra Concerto Copenhagen is one of the leading baroque orchestras in the world.



Tracklist:

01. Concerto Copenhagen - The Four Seasons After Vivaldi (After Op. 8 No. 1, RV 269 "Spring"): I. Allegro
02. Concerto Copenhagen - The Four Seasons After Vivaldi (After Op. 8 No. 1, RV 269 "Spring"): II. Largo e pianissimo sempre
03. Concerto Copenhagen - The Four Seasons After Vivaldi (After Op. 8 No. 1, RV 269 "Spring"): III. Danza pastorale. Allegro
04. Concerto Copenhagen - The Four Seasons After Vivaldi (After Op. 8 No. 2, RV 315 "Summer"): I. Allegro non molto
05. Concerto Copenhagen - The Four Seasons After Vivaldi (After Op. 8 No. 2, RV 315 "Summer"): II. Adagio
06. Concerto Copenhagen - The Four Seasons After Vivaldi (After Op. 8 No. 2, RV 315 "Summer"): III. Presto
07. Concerto Copenhagen - The Four Seasons After Vivaldi (After Op. 8 No. 3, RV 293 "Autumn"): I. Allegro
08. Concerto Copenhagen - The Four Seasons After Vivaldi (After Op. 8 No. 3, RV 293 "Autumn"): II. Adagio molto
09. Concerto Copenhagen - The Four Seasons After Vivaldi (After Op. 8 No. 3, RV 293 "Autumn"): III. Allegro
10. Concerto Copenhagen - The Four Seasons After Vivaldi (After Op. 8 No. 4, RV 297 "Winter"): I. Allegro non molto
11. Concerto Copenhagen - The Four Seasons After Vivaldi (After Op. 8 No. 4, RV 297 "Winter"): II. Largo
12. Concerto Copenhagen - The Four Seasons After Vivaldi (After Op. 8 No. 4, RV 297 "Winter"): III. Allegro
13. Concerto Copenhagen - Follia, follia …
14. Concerto Copenhagen - Gli uccelli, P. 154 (Arr. K.A. Rasmussen): I. Preludio da Bernardo Pasquini
15. Concerto Copenhagen - Gli uccelli, P. 154 (Arr. K.A. Rasmussen): II. La colomba da Jacques de Gallot
16. Concerto Copenhagen - Gli uccelli, P. 154 (Arr. K.A. Rasmussen): III. La gallina da Jean-Philippe Rameau
17. Concerto Copenhagen - Gli uccelli, P. 154 (Arr. K.A. Rasmussen): IV. L'usignuolo da un anonimo inglese
18. Concerto Copenhagen - Gli uccelli, P. 154 (Arr. K.A. Rasmussen): V. Il cucù da Bernardo Pasquini

foobar2000 1.3.9 / Dynamic Range Meter 1.1.1
log date: 2019-09-04 06:37:06

––––––––––––––––––––––––––––––––––––––––
Analyzed: Concerto Copenhagen / The Four Seasons After Vivaldi
––––––––––––––––––––––––––––––––––––––––

DR Peak RMS Duration Track
––––––––––––––––––––––––––––––––––––––––
DR13 -3.01 dB -20.61 dB 3:33 01-The Four Seasons After Vivaldi (After Op. 8 No. 1, RV 269 "Spring"): I. Allegro
DR14 -11.49 dB -30.61 dB 2:42 02-The Four Seasons After Vivaldi (After Op. 8 No. 1, RV 269 "Spring"): II. Largo e pianissimo sempre
DR13 -2.77 dB -19.75 dB 3:45 03-The Four Seasons After Vivaldi (After Op. 8 No. 1, RV 269 "Spring"): III. Danza pastorale. Allegro
DR14 -2.23 dB -22.40 dB 5:26 04-The Four Seasons After Vivaldi (After Op. 8 No. 2, RV 315 "Summer"): I. Allegro non molto
DR17 -3.32 dB -28.96 dB 2:15 05-The Four Seasons After Vivaldi (After Op. 8 No. 2, RV 315 "Summer"): II. Adagio
DR12 -1.45 dB -17.53 dB 3:13 06-The Four Seasons After Vivaldi (After Op. 8 No. 2, RV 315 "Summer"): III. Presto
DR15 -1.67 dB -22.26 dB 4:58 07-The Four Seasons After Vivaldi (After Op. 8 No. 3, RV 293 "Autumn"): I. Allegro
DR11 -15.26 dB -31.74 dB 2:45 08-The Four Seasons After Vivaldi (After Op. 8 No. 3, RV 293 "Autumn"): II. Adagio molto
DR15 -1.61 dB -19.67 dB 3:17 09-The Four Seasons After Vivaldi (After Op. 8 No. 3, RV 293 "Autumn"): III. Allegro
DR13 -1.71 dB -20.60 dB 4:02 10-The Four Seasons After Vivaldi (After Op. 8 No. 4, RV 297 "Winter"): I. Allegro non molto
DR12 -14.59 dB -30.81 dB 2:46 11-The Four Seasons After Vivaldi (After Op. 8 No. 4, RV 297 "Winter"): II. Largo
DR13 -1.69 dB -20.99 dB 3:14 12-The Four Seasons After Vivaldi (After Op. 8 No. 4, RV 297 "Winter"): III. Allegro
DR13 -6.78 dB -24.60 dB 7:39 13-Follia, follia …
DR12 -2.25 dB -20.18 dB 2:43 14-Gli uccelli, P. 154 (Arr. K.A. Rasmussen): I. Preludio da Bernardo Pasquini
DR11 -7.15 dB -23.84 dB 3:16 15-Gli uccelli, P. 154 (Arr. K.A. Rasmussen): II. La colomba da Jacques de Gallot
DR14 -5.43 dB -24.04 dB 2:58 16-Gli uccelli, P. 154 (Arr. K.A. Rasmussen): III. La gallina da Jean-Philippe Rameau
DR12 -9.59 dB -25.31 dB 3:36 17-Gli uccelli, P. 154 (Arr. K.A. Rasmussen): IV. L'usignuolo da un anonimo inglese
DR14 -1.57 dB -22.39 dB 4:36 18-Gli uccelli, P. 154 (Arr. K.A. Rasmussen): V. Il cucù da Bernardo Pasquini
––––––––––––––––––––––––––––––––––––––––

Number of tracks: 18
Official DR value: DR13

Samplerate: 192000 Hz
Channels: 2
Bits per sample: 24
Bitrate: 4621 kbps
Codec: FLAC
================================================================================



Thanks to the Original customer!