Subcategories

Crosby, Stills, Nash & Young - CSNY 1974 (2014) [BD-Audio Rip 24-192] RE-UP

Posted By: HDV
Crosby, Stills, Nash & Young - CSNY 1974 (2014) [BD-Audio Rip 24-192] RE-UP

Crosby, Stills, Nash & Young - CSNY 1974 (2014)
FLAC (tracks) 24 bit/192 kHz | Time - 196:30 minutes | 7,4 GB
Blu-Ray Audio Rip | Sourced Track - LPCM 2.0 Stereo | No Art

Long-rumored and highly anticipated, CSNY 1974 captures the band’s one-of-a-kind harmonic alchemy during its remarkable outdoor stadium tour, a trek that spanned more than two months and included 31 concerts, in 24 cities, with combined audiences of over a million people. Produced by Graham Nash and Joel Bernstein, this 40th anniversary Blu-Ray features 40 live tracks!

It was, at the time, one of the highest-grossing rock tours ever, grossing over 11 million dollars in an era when such figures were uncommon. Such success camouflaged the chaos behind the scenes – the bitter fights and feuds, the excess and indulgence that led to Crosby, Stills, Nash & Young pocketing about a half million dollars each, when all was said and done. Big bucks were the reason the CSNY 1974 tour even existed. Efforts to record a new album in 1973, their first since 1970's breakthrough Déjà Vu, collapsed but manager Elliot Roberts and promoter Bill Graham convinced the group to stage the first outdoor stadium tour in the summer of 1974, with the idea that CSNY would test-drive new material in concert, then record a new studio album in the fall, or maybe release a live record from the historic tour. Neither happened. The group cleaved in two upon the tour's conclusion and the live tapes sat in the vaults until Graham Nash decided to assemble a box set of the tour just in time for its 40th anniversary in 2014. Nash and producer Joel Bernstein – the driving forces behind the excellent new millennial archival CSN reissues – culled the best moments from the nine recorded shows, sometimes cobbling together composites, then assembled the whole thing as a three-CD set designed to replicate the mammoth three-hour sets the quartet played in 1974. That very length indicates how there was room on the 1974 tour for every aspect of CSNY, giving space to sensitive folk, woolly electric guitar jams, hits, and unheard songs. Several of those new songs showed up on albums by CSNY in various permutations, while a few – mostly written by Young – never got an airing outside of this tour, so the first official release of "Love Art Blues," "Pushed It Over the End," and even the throwaway Nixon jape "Goodbye Dick" is indeed noteworthy. But what makes CSNY 1974 a substantial chapter in their legacy is how it captures the band in full flight just as its moment is starting to slip away. Stills and Young play with the burly force they channeled into Manassas and Crazy Horse, providing a startling contrast to both the sweetness of disc two's acoustic set and Crosby's excursions into the haze of If I Could Only Remember My Name. Hearing the band pull apart as its members come together is simultaneously thrilling and enervating because Crosby, Stills, Nash, and Young remain locked in a battle to outdo one another; it's fascinating to hear them spar, but also draining. Nevertheless, that messy competition is why CSNY 1974 is a vital addition to their canon. Tales of CSNY acrimony are legend, but this rancor rarely surfaced on record. Here, those brawling egos are pushed to the forefront, with all the pretty harmonies operating as an accent to the main event.

Tracklist:

01 - Love The One You're With
02 - Wooden Ships
03 - Immigration Man
04 - Helpless
05 - Carry Me
06 - Johnny's Garden
07 - Traces
08 - Grave Concern
09 - On The Beach
10 - Black Queen
11 - Almost Cut My Hair
12 - Change Partners
13 - The Lee Shore
14 - Only Love Can Break Your Heart
15 - Our House
16 - Fieldworker
17 - Guinevere
18 - Time After Time
19 - Prison Song
20 - Long May You Run
21 - Goodbye Dick
22 - Mellow My Mind
23 - Old Man
24 - Word Game
25 - Myth Of Sisyphus
26 - Blackbird
27 - Love Art Blues
28 - Hawaiian Sunrise
29 - Teach Your Children
30 - Suite: Judy Blue Eyes
31 - Deja Vu
32 - My Angel
33 - Pre-Road Downs
34 - Don't Be Denied
35 - Revolution Blues
36 - Military Madness
37 - Long Time Gone
38 - Pushed It Over The End
39 - Chicago
40 - Ohio

Analyzed: Crosby, Stills, Nash & Young / CSNY 1974
––––––––––––––––––––––––––––––––––––––––

DR Peak RMS Duration Track
––––––––––––––––––––––––––––––––––––––––
DR13 -0.11 dB -15.86 dB 6:16 01-Love The One You're With
DR12 -1.82 dB -17.27 dB 6:34 02-Wooden Ships
DR11 -2.01 dB -15.48 dB 3:40 03-Immigration Man
DR13 -2.49 dB -18.47 dB 4:44 04-Helpless
DR12 -1.47 dB -16.95 dB 4:42 05-Carry Me
DR13 -1.33 dB -16.18 dB 5:11 06-Johnny's Garden
DR12 -1.26 dB -16.62 dB 3:08 07-Traces
DR13 -0.62 dB -16.34 dB 3:31 08-Grave Concern
DR13 -0.67 dB -16.61 dB 7:41 09-On The Beach
DR11 -0.80 dB -14.75 dB 8:20 10-Black Queen
DR12 -0.68 dB -15.73 dB 7:17 11-Almost Cut My Hair
DR12 -0.70 dB -15.51 dB 3:41 12-Change Partners
DR13 -1.35 dB -16.92 dB 4:55 13-The Lee Shore
DR13 -0.01 dB -17.38 dB 3:28 14-Only Love Can Break Your Heart
DR11 -6.64 dB -21.01 dB 3:39 15-Our House
DR13 -0.40 dB -18.24 dB 3:06 16-Fieldworker
DR14 -4.19 dB -22.92 dB 5:53 17-Guinevere
DR14 -4.79 dB -24.50 dB 4:04 18-Time After Time
DR13 -3.29 dB -20.00 dB 4:06 19-Prison Song
DR15 -2.03 dB -21.75 dB 4:07 20-Long May You Run
DR13 -3.86 dB -24.05 dB 1:14 21-Goodbye Dick
DR15 -4.12 dB -22.99 dB 3:07 22-Mellow My Mind
DR11 -3.57 dB -17.54 dB 4:16 23-Old Man
DR12 -3.17 dB -19.28 dB 6:23 24-Word Game
DR15 -0.51 dB -21.00 dB 4:44 25-Myth Of Sisyphus
DR14 -4.17 dB -22.70 dB 2:53 26-Blackbird
DR12 -1.65 dB -16.12 dB 2:42 27-Love Art Blues
DR13 -3.38 dB -19.39 dB 3:00 28-Hawaiian Sunrise
DR14 -1.73 dB -18.76 dB 3:23 29-Teach Your Children
DR11 -1.11 dB -17.11 dB 9:20 30-Suite: Judy Blue Eyes
DR12 -0.82 dB -17.45 dB 8:28 31-Deja Vu
DR13 -0.23 dB -17.41 dB 4:29 32-My Angel
DR11 -0.53 dB -13.07 dB 3:32 33-Pre-Road Downs
DR12 -0.46 dB -14.38 dB 6:37 34-Don't Be Denied
DR12 -0.14 dB -13.26 dB 4:22 35-Revolution Blues
DR10 0.00 dB -12.85 dB 5:10 36-Military Madness
DR12 0.00 dB -14.93 dB 6:05 37-Long Time Gone
DR11 -0.58 dB -13.88 dB 7:53 38-Pushed It Over The End
DR12 -0.17 dB -14.79 dB 4:42 39-Chicago
DR12 0.00 dB -14.64 dB 6:07 40-Ohio
––––––––––––––––––––––––––––––––––––––––

Number of tracks: 40
Official DR value: DR13

Samplerate: 192000 Hz
Channels: 2
Bits per sample: 24
Bitrate: 5107 kbps
Codec: FLAC
================================================================================


More of 'Crosby, Stills & Nash' in Hi-Res