Dan Nimmer Trio - Yours Is My Heart Alone (2008) [Japan 2016] SACD ISO + Hi-Res FLAC

Posted By: HDAtall
Dan Nimmer Trio - Yours Is My Heart Alone (2008) [Japan 2016] SACD ISO + Hi-Res FLAC

Dan Nimmer Trio - Yours Is My Heart Alone (2008) [Japan 2016]
SACD Rip | SACD ISO | DSD64 2.0 > 1-bit/2.8224 MHz | 67:13 minutes | Front/Rear Covers | 2,2 GB
or FLAC(converted with foobar2000 to tracks) 24bit/88,2 kHz | Front/Rear Covers | 1,48 GB

Dan Nimmer is an American jazz pianist and composer. He has already released two wonderful albums as leader – Tea For Two and Kelly Blue from for Japanese Venus Records. Yours Is My Heart Alone is the eagerly awaited third release, and the fans are treated not only with the youthful, beautiful and swinging piano of Nimmer, but also sublime performances by a superb rhythm section: Peter Washington on bass and Lewis Nash on drums.

Tracklist:

01. Yours Is My Heart Alone
02. Jambangle
03. Just Us
04. Ray
05. Speak Low
06. Poinciana
07. Blues Etude
08. Road Song
09. Squatty Roo
10. Only Trust Your Heart
11. Falling In Love With Love
12. Speak Low [II]
13. Whims Of Chambers

Produced, Mixed & Mastered by Tetsuo Hara. Engineered by Katherine Miller.
Recorded on November 25-26, 2007 at The Studio in New York.
Venus Hyper Magnum Sound Direct Mix. VENUS Japan # VHGD-154.

Personnel
Dan Nimmer - piano
Peter Washington - bass
Lewis Nash - drums

foobar2000 1.3.17 / Dynamic Range Meter 1.1.1

––––––––––––––––––––––––––––––––––––––––
Analyzed: DAN NIMMER TRIO / Yours Is My Heart Alone
––––––––––––––––––––––––––––––––––––––––

DR Peak RMS Duration Track
––––––––––––––––––––––––––––––––––––––––
DR7 -4.69 dB -13.62 dB 4:24 01-Yours Is My Heart Alone
DR8 -4.61 dB -14.23 dB 5:37 02-Jambangle
DR9 -5.16 dB -16.86 dB 5:34 03-Just Us
DR8 -4.81 dB -14.70 dB 5:32 04-Ray
DR8 -4.84 dB -14.46 dB 5:48 05-Speak Low
DR8 -4.85 dB -14.21 dB 5:22 06-Poinciana
DR8 -5.01 dB -14.36 dB 4:25 07-Blues Etude
DR7 -4.72 dB -13.12 dB 3:52 08-Road Song
DR7 -4.90 dB -13.80 dB 5:11 09-Squatty Roo
DR9 -4.88 dB -15.94 dB 4:28 10-Only Trust Your Heart
DR8 -4.85 dB -15.12 dB 6:01 11-Falling In Love With Love
DR7 -4.84 dB -12.80 dB 5:26 12-Speak Low [II]
DR8 -4.76 dB -14.07 dB 5:34 13-Whims Of Chambers
––––––––––––––––––––––––––––––––––––––––

Number of tracks: 13
Official DR value: DR8

Samplerate: 2822400 Hz / PCM Samplerate: 88200 Hz
Channels: 2
Bits per sample: 1
Bitrate: 5645 kbps
Codec: DSD64


Thanks to jazzyman!
Uncompressed SACD ISO size > 2,73 GB
>