David Bowie - David Live {2005 Mix} (1974/2016) [Official Digital Download 24/96]

Posted By: HDV
David Bowie - David Live {2005 Mix} (1974/2016) [Official Digital Download 24/96]

David Bowie - David Live (1974/2016) [2005 Mix]
FLAC (tracks) 24-bit/96 kHz | Time - 102:51 minutes | 2,02 GB
Studio Master, Official Digital Download | Artwork: Front cover

David Live is David Bowie’s first official live album, originally released by RCA Records in 1974. The album was recorded in July of that year, on the initial leg of Bowie's US Diamond Dogs Tour, at the Tower Theater in Upper Darby, PA, a suburb of Philadelphia. (The second leg, a more soul-oriented affair following recording sessions in Philadelphia for the bulk of Young Americans, would be renamed 'Philly Dogs'). A new version of the album was released on CD in 2005 by EMI/Virgin, containing two additional bonus tracks (though the version of "Panic in Detroit" had previously been released as the B-side to the UK single release of "Knock on Wood", and reissued on the 1982 compilation Rare), a reordering of these and previous bonus tracks into their correct position in the original set list order, and a new mix by Tony Visconti.

The supporting tour for Diamond Dogs was supposed to be a theatrical extravaganza, yet as he headed out on the road, David Bowie became infatuated with Philly soul and changed his entire approach to reflect his new interest, as well as his backing band in the process. As a result, the double-album David Live captures Bowie in transition, as he moves from glam rock to plastic soul. The set list draws heavily from Ziggy Stardust-era songs, yet there are a few surprises, like a stilted cover of "Knock On Wood" and an inspired version of "All the Young Dudes," a song Bowie gave Mott the Hoople. Since Bowie's attempts at soul are a little awkward at this stage, David Live is primarily of interest as a historical document, yet there's enough good material to make it worthwhile for fanatics.

Tracklist:

01 - 1984
02 - Rebel Rebel
03 - Moonage Daydream
04 - Sweet Thing/Candidate/Sweet Thing
05 - Changes
06 - Suffragette City
07 - Aladdin Sane
08 - All The Young Dudes
09 - Cracked Actor
10 - Rock 'N' Roll With Me
11 - Watch That Man
12 - Knock On Wood
13 - Here Today, Gone Tomorrow
14 - Space Oddity
15 - Diamond Dogs
16 - Panic In Detroit
17 - Big Brother
18 - Time
19 - The Width Of A Circle
20 - The Jean Genie
21 - Rock 'N' Roll Suicide

Analyzed: David Bowie / David Live (2005 Mix) [Remastered Version]
––––––––––––––––––––––––––––––––––––––––

DR Peak RMS Duration Track
––––––––––––––––––––––––––––––––––––––––
DR12 -0.78 dB -15.58 dB 3:22 01-1984 (Live) (2005 Mix) (2016 Remastered Version)
DR13 -0.45 dB -15.06 dB 2:41 02-Rebel Rebel (Live) (2005 Mix) (2016 Remastered Version)
DR12 -2.35 dB -17.99 dB 5:08 03-Moonage Daydream (Live) (2005 Mix) (2016 Remastered Version)
DR13 -2.62 dB -17.89 dB 8:36 04-Sweet Thing/Candidate/Sweet Thing (Live) (2005 Mix) (2016 Remastered Version)
DR12 -3.12 dB -18.28 dB 3:36 05-Changes (Live) (2005 Mix) (2016 Remastered Version)
DR11 -3.01 dB -15.75 dB 3:43 06-Suffragette City (Live) (2005 Mix) (2016 Remastered Version)
DR11 -2.18 dB -16.60 dB 5:02 07-Aladdin Sane (Live) (2005 Mix) (2016 Remastered Version)
DR12 -2.48 dB -16.74 dB 4:15 08-All The Young Dudes (Live) (2005 Mix) (2016 Remastered Version)
DR12 -2.54 dB -17.20 dB 3:26 09-Cracked Actor (Live) (2005 Mix) (2016 Remastered Version)
DR12 -0.89 dB -15.24 dB 4:16 10-Rock 'N' Roll With Me (Live) (2005 Mix) (2016 Remastered Version)
DR12 -1.05 dB -14.19 dB 5:06 11-Watch That Man (Live) (2005 Mix) (2016 Remastered Version)
DR12 -2.58 dB -16.82 dB 3:25 12-Knock On Wood (Live) (2005 Mix) (2016 Remastered Version)
DR14 0.00 dB -15.86 dB 3:48 13-Here Today, Gone Tomorrow (Live) (2005 Mix) (2016 Remastered Version)
DR13 -1.98 dB -17.70 dB 6:26 14-Space Oddity (Live) (2005 Mix) (2016 Remastered Version)
DR13 -1.67 dB -16.45 dB 6:27 15-Diamond Dogs (Live) (2005 Mix) (2016 Remastered Version)
DR12 -2.08 dB -15.71 dB 5:40 16-Panic In Detroit (Live) (2005 Mix) (2016 Remastered Version)
DR13 -1.76 dB -18.72 dB 4:14 17-Big Brother (Live) (2005 Mix) (2016 Remastered Version)
DR12 -2.29 dB -17.57 dB 5:23 18-Time (Live) (2005 Mix) (2016 Remastered Version)
DR13 -1.94 dB -17.20 dB 8:11 19-The Width Of A Circle (Live) (2005 Mix) (2016 Remastered Version)
DR12 -1.78 dB -16.52 dB 5:19 20-The Jean Genie (Live) (2005 Mix) (2016 Remastered Version)
DR12 -1.65 dB -16.72 dB 4:47 21-Rock 'N' Roll Suicide (Live) (2005 Mix) (2016 Remastered Version)
––––––––––––––––––––––––––––––––––––––––

Number of tracks: 21
Official DR value: DR12

Samplerate: 96000 Hz
Channels: 2
Bits per sample: 24
Bitrate: 2554 kbps
Codec: FLAC
================================================================================


Thanks to the Original customer!

Much more of 'Bowie' in Hi-Res