David Bowie - The Next Day: Extra (2013) [Official Digital Download 24/96]

Posted By: HDV
David Bowie - The Next Day: Extra (2013) [Official Digital Download 24/96]

David Bowie - The Next Day: Extra (2013)
FLAC (tracks) 24-bit/96 kHz | Time - 93:55 minutes | 2,02 GB
Studio Master, Official Digital Download | Artwork: Front cover

The Next Day Extra is the collector's edition of David Bowie's critically acclaimed 2013 album The Next Day. The package includes 24 audio tracks. There is the original 14 track album, as well as the three tracks from the original deluxe edition of The Next Day, plus four new studio tracks, a bonus track ("God Bless The Girl"), and two new remixes. One of the remixes is done by famed musician/producer/DJ James Murphy, who reworked "Love Is Lost" into a 10-plus minute epic.

Say this for David Bowie: he has a flair for drama. This abiding love of the theatrical may not be as evident in the production of The Next Day as it is in its presentation, how Bowie sprung it upon the world early in 2013 following a decade of undeclared retirement. Reasons for Bowie's absence were many and few, perhaps related to a health scare in 2004, perhaps due to a creative dry spell, perhaps he simply didn't have songs to sing, or perhaps he had a lingering suspicion that by the time the new millennium was getting into full swing he was starting to be taken for granted. He had settled into a productive purple patch in the late '90s, a development that was roundly ignored by all except the devoted and the press, who didn't just give Hours, Heathen, and Reality a pass, they recognized them as a strong third act in a storied career. That same sentiment applies to The Next Day, an album recorded with largely the same team as Reality – the same musicians and the same producer, his longtime lieutenant Tony Visconti – and, appropriately, shares much of the same moody, meditative sound as its predecessor Heathen. What's different is the reception, which is appropriately breathless because Bowie has been gone so long we all know what we've missed. And The Next Day is designed to remind us all of why we've missed him, containing hints of the Thin White Duke and Ziggy Stardust within what is largely an elegant, considered evocation of the Berlin Bowie so calculating it opens with a reworking of "Beauty & The Beast," and is housed in an artful desecration of the Heroes LP cover. Unlike his Berlin trilogy of the late '70s, The Next Day is rarely unsettling. Apart from the crawling closer "Heat" – a quiet, shimmering, hallucination-channeling late-'70s Scott Walker – the album has been systematically stripped of eeriness, trading discomfort for pleasure at every turn. And pleasure it does deliver, as nobody knows how to do classic Bowie like Bowie and Visconti, the two life-long collaborators sifting through their past, picking elements that relate to what Bowie is now: an elder statesman who made a conscious decision to leave innovation behind long ago. This persistent, well-manicured nostalgia could account for the startling warmth that exudes from The Next Day; even when a melody sighs with an air of resigned melancholia, as it does on "Where Are We Now?," it never delves into sadness, it stays afloat in a warm, soothing bath. That overwhelming familiarity is naturally quite appealing for anyone well-versed in Bowie lore, but The Next Day isn't a career capper; it lacks the ambition to be anything so grand. The Next Day neither enhances nor diminishes anything that came before, it's merely a sweet coda to a towering career.

Tracklist:

01 - The Next Day
02 - Dirty Boys
03 - The Stars (Are Out Tonight)
04 - Love Is Lost
05 - Where Are We Now
06 - Valentine's Day
07 - If You Can See Me
08 - I'd Rather Be High
09 - Boss Of Me
10 - Dancing Out In Space
11 - How Does The Grass Grow?
12 - (You Will) Set The World On Fire
13 - You Feel So Lonely You Could Die
14 - Heat
15 - Atomica
16 - Love Is Lost [Hello Steve Reich Mix by James Murphy for the DFA]
17 - Plan
18 - The Informer
19 - I'd Rather Be High [Venetian Mix]
20 - Like A Rocket Man
21 - Born In A UFO
22 - I'll Take You There
23 - God Bless The Girl
24 - So She

Analyzed: David Bowie / The Next Day Extra
––––––––––––––––––––––––––––––––––––––––

DR Peak RMS Duration Track
––––––––––––––––––––––––––––––––––––––––
DR6 -0.60 dB -7.41 dB 3:27 01-The Next Day
DR7 -0.60 dB -9.79 dB 2:58 02-Dirty Boys
DR5 -0.60 dB -7.27 dB 3:57 03-The Stars (Are Out Tonight)
DR6 -0.60 dB -7.61 dB 3:58 04-Love Is Lost
DR6 -0.60 dB -9.13 dB 4:09 05-Where Are We Now
DR6 -0.60 dB -7.95 dB 3:02 06-Valentine's Day
DR6 -0.60 dB -7.74 dB 3:12 07-If You Can See Me
DR7 -0.60 dB -7.99 dB 3:45 08-I'd Rather Be High
DR4 -0.94 dB -7.21 dB 4:10 09-Boss Of Me
DR6 -0.61 dB -8.24 dB 3:22 10-Dancing Out In Space
DR6 -0.60 dB -7.79 dB 4:34 11-How Does The Grass Grow?
DR6 -0.60 dB -7.44 dB 3:32 12-(You Will) Set The World On Fire
DR6 -0.60 dB -8.69 dB 4:38 13-You Feel So Lonely You Could Die
DR6 -0.60 dB -9.10 dB 4:25 14-Heat
DR7 -0.70 dB -8.13 dB 4:05 01-Atomica
DR9 -0.47 dB -13.07 dB 10:25 02-Love Is Lost (Hello Steve Reich Mix by James Murphy for the DFA)
DR9 -0.70 dB -11.49 dB 2:00 03-Plan
DR6 -0.70 dB -8.56 dB 4:31 04-The Informer
DR6 -0.70 dB -8.04 dB 3:49 05-I'd Rather Be High (Venetian Mix)
DR7 -0.70 dB -8.86 dB 3:29 06-Like A Rocket Man
DR6 -0.70 dB -7.45 dB 3:02 07-Born In A UFO
DR7 -0.70 dB -8.28 dB 2:40 08-I'll Take You There
DR6 -0.70 dB -9.12 dB 4:11 09-God Bless The Girl
DR7 -0.70 dB -9.99 dB 2:31 10-So She
––––––––––––––––––––––––––––––––––––––––

Number of tracks: 24
Official DR value: DR6

Samplerate: 96000 Hz
Channels: 2
Bits per sample: 24
Bitrate: 2765 kbps
Codec: FLAC
================================================================================


Thanks to the Original customer!

More of 'David Bowie' in Hi-Res


H E R E

password: AvaxHome




.