David Gilmour - Live At Pompeii (2017) [BDRip, FLAC Stereo 24-96]

Posted By: HDV
David Gilmour - Live At Pompeii (2017) [BDRip, FLAC Stereo 24-96]

David Gilmour - Live At Pompeii (2017)
FLAC (tracks) 24-bit/96 kHz | Time - 217:51 minutes | 4,1 GB
Source: Blu-Ray's Stereo Track 24/96 | Artwork: Full Sleeve (Digipak)

Live at Pompeii is a live album and film by David Gilmour, the former guitarist of Pink Floyd. It was recorded at the Pompeii Amphitheatre and was the first public performance at the venue since AD 79. It documents his 2015-16 world tour to promote his album, Rattle That Lock (2015). Also includes Blu-Ray's bonus material - "South America December 2015" & "Wroclaw 2016 (With The NFM Wroclaw Philharmonic Orchestra)".

David Gilmour‘s historic return to Pompeii for a pair of live dates in 2016 will make its way to home audiences later this year with the CD/DVD/Blu-ray release of the Pink Floyd veteran’s latest concert recording, Live at Pompeii.

In 2015 David Gilmour set out to play a series of concerts in historic venues across the world. The following year he became the first performer to play the amphitheater in Pompeii in front of a live audience since the gladiators in 79AD,” explains a press release quote from Gilmour’s wife and frequent collaborator, Polly Samson. “It was a return to Pompeii for David, having first performed there in 1971 for Adrian Maben’s legendary concert film, Pink Floyd Live at Pompeii. In Roman times the Pompeii amphitheater was known as a ‘Spectaculum’ and David worked with longtime collaborator and maestro of color and light Marc Brickman to bring the spectacle back to the Spectaculum.

Tracklist

Live At Pompeii (Disc 1)

01 - 5 A.M.
02 - Rattle That Lock
03 - Faces Of Stone
04 - What Do You Want From Me
05 - The Blue
06 - The Great Gig In The Sky
07 - A Boat Lies Waiting
08 - Wish You Were Here
09 - Money
10 - In Any Tongue
11 - High Hopes

Analyzed: David Gilmour / Live at Pompeii (Disc 1)
––––––––––––––––––––––––––––––––––––––––

DR Peak RMS Duration Track
––––––––––––––––––––––––––––––––––––––––
DR12 -0.30 dB -15.85 dB 3:13 01-5 A.M.
DR12 -0.30 dB -14.81 dB 5:22 02-Rattle That Lock
DR11 -0.30 dB -14.84 dB 6:02 03-Faces Of Stone
DR11 -0.30 dB -13.32 dB 4:35 04-What Do You Want From Me
DR12 -0.34 dB -14.20 dB 6:30 05-The Blue
DR9 -0.30 dB -14.24 dB 6:02 06-The Great Gig In The Sky
DR12 -1.44 dB -18.01 dB 4:56 07-A Boat Lies Waiting
DR13 -0.30 dB -16.69 dB 5:18 08-Wish You Were Here
DR12 -0.30 dB -14.42 dB 8:13 09-Money
DR10 -0.30 dB -13.19 dB 8:03 10-In Any Tongue
DR11 -0.30 dB -14.52 dB 9:59 11-High Hopes
––––––––––––––––––––––––––––––––––––––––

Number of tracks: 11
Official DR value: DR11

Samplerate: 96000 Hz
Channels: 2
Bits per sample: 24
Bitrate: 2687 kbps
Codec: FLAC
================================================================================



Live At Pompeii (Disc 2)
01 - One Of These Days
02 - Shine On You Crazy Diamond
03 - Fat Old Sun
04 - Coming Back To Life
05 - On An Island
06 - Today
07 - Sorrow
08 - Run Like Hell
09 - Time / Breathe (In The Air) (reprise)
10 - Comfortably Numb

Analyzed: David Gilmour / Live at Pompeii (Disc 2)
––––––––––––––––––––––––––––––––––––––––

DR Peak RMS Duration Track
––––––––––––––––––––––––––––––––––––––––
DR11 -0.30 dB -13.79 dB 6:36 01-One Of These Days
DR12 -0.30 dB -15.24 dB 12:38 02-Shine On You Crazy Diamond
DR12 -0.30 dB -15.20 dB 5:58 03-Fat Old Sun
DR12 -0.30 dB -14.95 dB 7:17 04-Coming Back To Life
DR12 -0.30 dB -14.52 dB 7:09 05-On An Island
DR12 -0.30 dB -14.02 dB 6:34 06-Today
DR10 -0.30 dB -11.63 dB 10:50 07-Sorrow
DR11 -0.30 dB -13.35 dB 7:16 08-Run Like Hell
DR13 -0.30 dB -15.66 dB 6:46 09-Time / Breathe (In The Air) (reprise)
DR11 0.00 dB -13.64 dB 13:06 10-Comfortably Numb
––––––––––––––––––––––––––––––––––––––––

Number of tracks: 10
Official DR value: DR12

Samplerate: 96000 Hz
Channels: 2
Bits per sample: 24
Bitrate: 2907 kbps
Codec: FLAC
================================================================================



South America December 2015 (BD Bonus material)
01 - Astronomy Domine
02 - Us And Them
03 - Today
04 - Time / Breathe (In The Air) (reprise)
05 - Comfortably Numb (Jon Carin vocal)

Analyzed: David Gilmour / Live at Pompeii (South America December 2015)
––––––––––––––––––––––––––––––––––––––––

DR Peak RMS Duration Track
––––––––––––––––––––––––––––––––––––––––
DR10 -0.30 dB -12.13 dB 5:19 01-Astronomy Domine
DR12 -0.30 dB -15.99 dB 7:50 02-Us And Them
DR11 -0.30 dB -13.17 dB 6:50 03-Today
DR11 -0.30 dB -14.01 dB 6:43 04-Time / Breathe (In The Air) (reprise)
DR10 -0.30 dB -12.42 dB 8:58 05-Comfortably Numb (Jon Carin vocal)
––––––––––––––––––––––––––––––––––––––––

Number of tracks: 5
Official DR value: DR11

Samplerate: 96000 Hz
Channels: 2
Bits per sample: 24
Bitrate: 1453 kbps
Codec: FLAC
================================================================================



Wroclaw 2016 (With The NFM Wroclaw Philharmonic Orchestra) [BD Bonus material]
01 - 5 A.M.
02 - Rattle That Lock
03 - Dancing Right In Front Of Me
04 - The Girl In The Yellow Dress (with Leszek MoЕјdЕјer)
05 - In Any Tongue
06 - (applause)

Analyzed: David Gilmour / Live at Pompeii (Wroclaw, Poland June 2016 Wroclaw With The NFM Wroclaw Philharmonic Orchestra)
––––––––––––––––––––––––––––––––––––––––

DR Peak RMS Duration Track
––––––––––––––––––––––––––––––––––––––––
DR11 -1.40 dB -15.25 dB 3:03 01-5 A.M.
DR12 -0.30 dB -13.94 dB 5:24 02-Rattle That Lock
DR12 -0.30 dB -15.06 dB 6:51 03-Dancing Right In Front Of Me
DR12 -3.07 dB -17.98 dB 6:41 04-The Girl In The Yellow Dress (with Leszek MoЕјdЕјer)
DR10 -0.30 dB -13.01 dB 7:03 05-In Any Tongue
DR13 -4.85 dB -21.93 dB 0:47 06-(applause)
––––––––––––––––––––––––––––––––––––––––

Number of tracks: 6
Official DR value: DR12

Samplerate: 96000 Hz
Channels: 2
Bits per sample: 24
Bitrate: 2342 kbps
Codec: FLAC
================================================================================


Audio produced by David Gilmour. Mixed by Andy Jackson & David Gilmour, assisted by Damon Iddins. Live Recording by Damon Iddins.

David Gilmour - Rattle That Lock (2015)