Deodato - Prelude (1972/2013) [Official Digital Download 24bit/192kHz] RE-UP

Posted By: HDV
Deodato - Prelude (1972/2013) [Official Digital Download 24bit/192kHz] RE-UP

Deodato - Prelude (1972/2013)
FLAC (tracks) 24 bit/192 kHz | Time - 32:48 minutes | 1,27 GB
Studio Master, Official Digital Download | Artwork: Front cover

Eumir Deodato de Almeida, also known as Eumir Deodato, is a Brazilian pianist, composer, record producer and arranger, primarily based in the jazz realm but who historically has been known for eclectic melding of big band and combo jazz with varied elements of rock/pop, R&B/funk, Brazilian/Latin, and symphonic or orchestral music.

Prior to Prelude, Eumir Deodato was primarily known, if at all, as a tasteful, lyrical, bossa nova-based sometime arranger for the likes of Antonio Carlos Jobim, Frank Sinatra, Wes Montgomery, and others. Enter Creed Taylor, who gave Deodato a chance to step out on his own as a pianist/leader, doing a few tunes of his own plus a healthy quota of CTI-patented jazz interpretations of classical pieces by Richard Strauss ("Also Sprach Zarathustra (2001)"), Debussy ("Prelude to the Afternoon of a Faun"), and bowdlerized Borodin ("Baubles, Bangles and Beads"). Well, "2001" – a clever, up-tempo Latin-groove takeoff on the opening measures of Strauss' tone poem suddenly exploded and became an improbable hit single. In its wake, Prelude soared to number three on the pop LP charts, and Deodato was propelled out of the arranger-for-hire business. Though overshadowed by "2001," the other tracks also hold up well today, being mostly medium-tempo, sometimes lushly orchestrated, conga-accented affairs that provide velvety showcases for Deodato's lyrical electric piano solos. The record also made a temporary star out of John Tropea, whose electric guitar has a lot of rock & rolling zip and fire, and Hubert Laws, Stanley Clarke, and Marvin Stamm each get a little solo room too. This would be the biggest hit Deodato and CTI ever had, and though short on playing time (32 minutes), it still makes enjoyable listening.

Tracklist:

01 - Also Sprach Zarathustra
02 - Spirit Of Summer
03 - Carly & Carole
04 - Baubles, Bangles And Beads
05 - Prelude To Afternoon Of A Faun
06 - September 13

Analyzed: Eumir Deodato / Prelude
––––––––––––––––––––––––––––––––––––––––

DR Peak RMS Duration Track
––––––––––––––––––––––––––––––––––––––––
DR13 -0.01 dB -16.11 dB 9:02 01-Also Sprach Zarathustra
DR11 -3.73 dB -20.09 dB 4:06 02-Spirit Of Summer
DR13 -1.60 dB -16.35 dB 3:43 03-Carly & Carole
DR12 -0.69 dB -16.20 dB 5:19 04-Baubles, Bangles And Beads
DR13 -1.31 dB -19.29 dB 5:15 05-Prelude To Afternoon Of A Faun
DR12 -0.81 dB -14.32 dB 5:23 06-September 13
––––––––––––––––––––––––––––––––––––––––

Number of tracks: 6
Official DR value: DR12

Samplerate: 192000 Hz
Channels: 2
Bits per sample: 24
Bitrate: 5372 kbps
Codec: FLAC
================================================================================


Thanks to the Original customer!