Dr. Strut - Dr. Strut (1979/2017) [Official Digital Download 24-bit/96kHz]

Posted By: HDV
Dr. Strut - Dr. Strut (1979/2017) [Official Digital Download 24-bit/96kHz]

Dr. Strut - Dr. Strut (1979/2017)
FLAC (tracks) 24-bit/96 kHz | Time - 35:58 minutes | 1,64 GB
Studio Master, Official Digital Download | Artwork: Front cover

Originally released in 1979, this digitally remastered album was the self-titled debut for Jazz-Funk band Dr. Strut. Signed by the legendary Motown records at a time when the label was growing its jazz catalogue, Dr. Strut presented ten positive and often laidback original tracks, now re-released for your listening pleasure.

Tracklist:

01 - Granite Palace
02 - The Look In Your Eyes
03 - Canadian Star
04 - More Stuff
05 - Blowtop
06 - Soul Sermonette
07 - Chicken Strut
08 - Eddieisms
09 - Who Cares
10 - No! You Came Here For An Arguement

Analyzed: Dr. Strut / Dr. Strut
––––––––––––––––––––––––––––––––––––––––

DR Peak RMS Duration Track
––––––––––––––––––––––––––––––––––––––––
DR10 0.00 dB -12.32 dB 3:33 01-Granite Palace
DR11 0.00 dB -13.03 dB 4:37 02-The Look In Your Eyes
DR11 0.00 dB -13.96 dB 4:24 03-Canadian Star
DR10 0.00 dB -11.63 dB 4:57 04-More Stuff
DR11 0.00 dB -12.63 dB 3:19 05-Blowtop
DR10 0.00 dB -13.52 dB 4:28 06-Soul Sermonette
DR10 0.00 dB -11.67 dB 3:21 07-Chicken Strut
DR10 0.00 dB -12.63 dB 3:09 08-Eddieisms
DR10 0.00 dB -11.13 dB 3:09 09-Who Cares
DR10 0.00 dB -11.59 dB 1:01 10-No! You Came Here For An Arguement
––––––––––––––––––––––––––––––––––––––––

Number of tracks: 10
Official DR value: DR10

Samplerate: 192000 Hz
Channels: 2
Bits per sample: 24
Bitrate: 6271 kbps
Codec: FLAC
================================================================================


Thanks to the Original customer!