Earth, Wind & Fire - I Am (1979/2012/2015) [Official Digital Download 24bit/96kHz] RE-UP

Posted By: HDV
Earth, Wind & Fire - I Am (1979/2012/2015) [Official Digital Download 24bit/96kHz] RE-UP

Earth, Wind & Fire - I Am (1979/2012/2015)
FLAC (tracks) 24 bit/96 kHz | Time - 37:42 minutes | 904 MB
Studio Master, Official Digital Download | Artwork: Front cover

I Am is the ninth studio album by the R&B band Earth, Wind & Fire, released on June 9, 1979 on CBS Records. The album features the singles "Boogie Wonderland" with The Emotions and "After the Love Has Gone". I Am has been certified double platinum in the US by the RIAA and platinum in the UK and in Canada by the British Phonographic Industry and Music Canada.

Disco was at the height of its popularity in 1979, when Earth, Wind & Fire responded with its most disco-influenced single ever, the glossy and infectious "Boogie Wonderland." Up to that point, EWF had pretty much ignored disco, and when the band finally acknowledged the style, the soulsters weren't about to inundate listeners with it. "Boogie Wonderland" (which features the Emotions, a female group for whom Maurice White had been producing major hits) isn't representative of I Am on the whole. From the hit ballad "After the Love Has Gone" to the exuberant "Let My Feelings Flow," I Am isn't a radical departure from its predecessor, All 'n All. Though not in a class with That's the Way of the World, Spirit, or All 'n All, I Am is a rewarding album that has a lot going for it.

Tracklist:

01 - In the Stone
02 - Can't Let Go
03 - After the Love Has Gone
04 - Let Your Feelings Show
05 - Boogie Wonderland (with The Emotions)
06 - Star
07 - Wait
08 - Rock That!
09 - You and I

Analyzed: Earth, Wind & Fire / I Am
––––––––––––––––––––––––––––––––––––––––

DR Peak RMS Duration Track
––––––––––––––––––––––––––––––––––––––––
DR13 -0.71 dB -15.23 dB 4:48 01-In the Stone
DR12 -0.71 dB -14.43 dB 3:28 02-Can't Let Go
DR13 -0.71 dB -16.63 dB 4:38 03-After the Love Has Gone
DR13 -0.71 dB -15.54 dB 5:14 04-Let Your Feelings Show
DR12 -0.71 dB -14.58 dB 4:48 05-Boogie Wonderland (with The Emotions)
DR14 -0.83 dB -16.50 dB 4:26 06-Star
DR14 -1.23 dB -18.12 dB 3:39 07-Wait
DR14 -0.82 dB -16.31 dB 3:07 08-Rock That!
DR12 -0.71 dB -14.31 dB 3:32 09-You and I
––––––––––––––––––––––––––––––––––––––––

Number of tracks: 9
Official DR value: DR13

Samplerate: 96000 Hz
Channels: 2
Bits per sample: 24
Bitrate: 3206 kbps
Codec: FLAC
================================================================================


Thanks to the Original customer!