Earth, Wind & Fire - Spirit (1976/2012/2015) [Official Digital Download 24bit/96kHz] RE-UP

Posted By: HDV
Earth, Wind & Fire - Spirit (1976/2012/2015) [Official Digital Download 24bit/96kHz] RE-UP

Earth, Wind & Fire - Spirit (1976/2012/2015)
FLAC (tracks) 24 bit/96 kHz | Time - 36:22 minutes | 825 MB
Studio Master, Official Digital Download | Artwork: Front cover

Spirit is the seventh studio album by Earth, Wind & Fire, released in 1976 on Columbia Records. The album reached number 2 on the Billboard Pop and R&B Albums Chart and has been certified double platinum in the US by the RIAA. Charles Stepney died during the sessions for Spirit, and Maurice White took over fully the arranging and production duties for the band.

With That's the Way of the World having enjoyed multi-platinum success, Earth, Wind & Fire had a lot to live up to when the time came for another studio project. And the soul powerhouse didn't let anyone down (either commercially or creatively) on the outstanding Spirit, which boasted hits ranging from the optimistic "On Your Face" and the passionate funk classic "Getaway" to the poetic ballad "Imagination." Philip Bailey is as charismatic as ever on "Imagination" and the gorgeous title song. Maurice White's message and vision (an interesting blend of Afro-American Christianity and Eastern philosophy) was as positive and uplifting as ever, and as always, EWF expressed this positivity without being Pollyanna-ish or corny. And even if one didn't take EWF's calls for unity, hard work, self-respect, and faith in God to heart, they had no problem with their solid grooves.

Tracklist:

01 - Getaway
02 - On Your Face
03 - Imagination
04 - Spirit
05 - Saturday Nite
06 - Earth, Wind & Fire
07 - Departure
08 - Biyo
09 - Burnin' Bush

Analyzed: Earth, Wind & Fire / Spirit
––––––––––––––––––––––––––––––––––––––––

DR Peak RMS Duration Track
––––––––––––––––––––––––––––––––––––––––
DR13 -1.05 dB -15.71 dB 3:47 01-Getaway
DR13 -1.05 dB -15.28 dB 4:33 02-On Your Face
DR14 -0.53 dB -15.68 dB 5:16 03-Imagination
DR13 -0.53 dB -16.81 dB 3:12 04-Spirit
DR15 -0.53 dB -17.31 dB 4:02 05-Saturday Nite
DR13 -1.05 dB -16.14 dB 4:41 06-Earth, Wind & Fire
DR10 -11.15 dB -26.80 dB 0:27 07-Departure
DR15 -0.53 dB -16.73 dB 3:38 08-Biyo
DR14 -1.05 dB -18.80 dB 6:45 09-Burnin' Bush
––––––––––––––––––––––––––––––––––––––––

Number of tracks: 9
Official DR value: DR13

Samplerate: 96000 Hz
Channels: 2
Bits per sample: 24
Bitrate: 2854 kbps
Codec: FLAC
================================================================================


Thanks to the Original customer!