Eden Atwood - Waves: The Bossa Nova Session (2002) [DSD64 + Hi-Res FLAC]

Posted By: HDV
Eden Atwood - Waves: The Bossa Nova Session (2002) [DSD64 + Hi-Res FLAC]

Eden Atwood - Waves: The Bossa Nova Session (2002)
DSD64 (.dsf) 1 bit/2,8 MHz | Time - 61:03 minutes | 1,62 GB
FLAC (tracks) 24-bit/88,2 kHz | Time - 61:03 minutes | 1,29 GB
Studio Master, Official Digital Download | Artwork: Digital booklet

The inviting sensitivity of singer Eden Atwood and the sensuous rhythms of Brazil make for a stirring musical marriage on Atwood's first Groove Note release Waves: The Bossa Nova Sessions. Atwood, who's thrilled audiences from Chicago to Shanghai with her superb vocal instrument and unbridled sense of expression, gives the music of Jobim, Ellington, Lennon-McCartney and others fresh meaning with unmatched warmth, conviction and a flirtatious touch of playfulness.

After a six-year span since making her final recording for Concord, singer Eden Atwood's triumphant return to the studio exudes a confidence that some writers think was lacking in her earlier work. With first-rate arrangements by pianist Bill Cunliffe and a supporting cast including alto saxophonist and flutist Pete Christlieb, guitarist Anthony Wilson, bassist Darek Oles, drummer Joe LaBarbera, and percussionist Scott Breadman, Atwood delves into memorable tunes by Antonio Carlos Jobim ("Meditation," "The Girl From Ipanema," and "He's a Carioca") as well as bossa nova treatments of Duke Ellington's overlooked gem "Don't You Know I Care?," Irving Berlin's "How Deep Is the Ocean?," and the Beatles' "The Fool on the Hill" with equal success. Her playful side comes through in the delightful "O Pato," while she doesn't overdo her emotions when interpreting a bittersweet ballad such as Michel Legrand's "Once Upon a Summertime." She also wrote lyrics for Jobim's mellow ballad "Carminos Cruzados." This long overdue comeback release by one of the promising young jazz singers to emerge during the 1990s is warmly recommended.

Tracklist:

01 - He's A Carioca
02 - O Pato
03 - Meditation
04 - Girl From Ipanema
05 - Once Upon A Summertime
06 - Don't You Know I Care
07 - Waves/Caminos Cruzados
08 - Fool On The Hill
09 - How Deep Is The Ocean
10 - Brazil
11 - It's A Quiet Thing

Produced by Joe Harley. Arranged by Bill Cunliffe.
Recorded on May 25-29, 2002 by Michael С Ross at Record One, Sherman Oaks, CA,
Mastering: David Glasser at Airshow Mastering using the Sony Direct Stream Digital™ System.
DSD file created by Gus Skinas from the SACD cutting master.

Musicians:
Eden Atwood - vocals
Anthony Wilson - guitar
Bill Cunliffe - piano
Pete Christlieb - tenor sax, flute
Darek Oleszkiewicz - bass
Joe LaBarbera - drums
Scott Breadman - percussion

Analyzed: Eden Atwood / Waves (The Bossa Nova Session)
––––––––––––––––––––––––––––––––––––––––

DR Peak RMS Duration Track
––––––––––––––––––––––––––––––––––––––––
DR15 -3.94 dB -22.12 dB 6:59 01-He's A Carioca
DR15 -2.15 dB -20.54 dB 5:02 02-O Pato
DR15 -4.96 dB -24.19 dB 5:45 03-Meditation
DR14 -5.46 dB -22.18 dB 6:39 04-Girl From Ipanema
DR15 -3.69 dB -23.74 dB 6:07 05-Once Upon A Summertime
DR13 -4.78 dB -23.23 dB 3:50 06-Don't You Know I Care
DR15 -2.79 dB -22.83 dB 6:20 07-Waves/Caminos Cruzados
DR15 -4.03 dB -22.43 dB 4:10 08-Fool On The Hill
DR14 -2.86 dB -21.53 dB 5:29 09-How Deep Is The Ocean
DR13 -5.06 dB -21.61 dB 6:09 10-Brazil
DR13 -5.54 dB -24.10 dB 4:31 11-It's A Quiet Thing
––––––––––––––––––––––––––––––––––––––––

Number of tracks: 11
Official DR value: DR14

Samplerate: 2822400 Hz / PCM Samplerate: 88200 Hz
Channels: 2
Bits per sample: 1
Bitrate: 5645 kbps
Codec: DSD64
================================================================================


Thanks to the Original customer!