Elton John - Peachtree Road (2004) MCH PS3 ISO + Hi-Res FLAC

Posted By: HDAtall
Elton John - Peachtree Road (2004) MCH PS3 ISO + Hi-Res FLAC

Elton John - Peachtree Road (2004)
PS3 Rip | SACD ISO | DST64 2.0 & 5.1 > 1-bit/2.8224 MHz | 52:04 minutes | Scans included | 3,34 GB
or FLAC 2.0 Stereo(converted with foobar2000 to tracks) 24bit/96 kHz | Full Scans included | 1,23 GB
Features Stereo and Multichannel Surround Sound

Peachtree Road is the 28th studio album by British singer/songwriter Elton John, released in 2004. It was named after Peachtree Road, the northern part of Peachtree Street in Atlanta, where one of John's four homes is located. This is the only album during his long career on which John alone has sole credit as producer.

Elton John returned to the sound and aesthetic of his classic early-'70s work with 2001's Songs From the West Coast, finding critical acclaim, if not much commercial success. Not that the lack of sales greatly bothered Elton – in many interviews, including one with Entertainment Weekly the week before Peachtree Road was released in November 2004, he claimed he was "disappointed" that it just barely went gold, but he was tired of making "uneven" records. John wasn't merely doing publicity: Peachtree Road proves that he's back to making good, solid records focused on songs, not hits, the way he did at the outset of his career. Since this is an album by a veteran, not an artist on the rise, it doesn't have the sense of discovery, or the hunger, that the early records still retain, and the production – the first self-production by John with no collaborators – is a little cleaner and crisper than the rich, warm sound of the late Gus Dudgeon (to whom this record is dedicated), who helmed such masterworks as Tumbleweed Connection. This means Peachtree Road is about craft, both in the writing and recording, which also means that it's a grower, with each song sounding stronger, better with each spin. While the sound of the record is bright and polished, this album makes few concessions to radio: this is certainly adult pop, but it never panders to adult contemporary radio, and the music is a little too rugged and sturdy to fit alongside the stubbornly sweet sounds of 21st century MOR. Which is precisely the point, of course: Elton has consciously returned to the reflective singer/songwriter template of the early '70s, both in his writing and production. Not that this is as lush as Elton John or country-tinged as Tumbleweed Connection – "Answer in the Sky" recalls the high-flying disco of "Philadelphia Freedom" quite deliberately, and "They Call Her the Cat" finds a halfway point between "Honkey Cat" and "The Bitch Is Back" – but it fits alongside those albums quite nicely because the focus is on songs, not trying to have hits. These songs may not rival his standards, but they're in the same tradition, and there's not a bad song in the bunch, resulting in a sturdy, satisfying record that proves that the comeback on Songs From the West Coast was no fluke and, hopefully, this latter-day renaissance for Elton will not be short-lived either.

Tracklist:

01. The Weight Of The World
02. Porch Swing In Tupelo
03. Answer In The Sky
04. Turn The Lights Out When You Leave
05. My Elusive Drug
06. They Call Her The Cat
07. Freaks In Love
08. All That I'm Allowed
09. I Stop And I Breathe
10. Too Many Tears
11. It's Getting Dark In Here
12. Can't Keep This From You

Produced by Elton John. Engineered and Mixed by Matt Still.
Recorded at Tree Studios, Atlanta, GA; The Record Plant, Los Angeles, CA; and Silent Sound, Atlanta, GA.
Mixed at Right Track Recording, New York, NY and Silent Sound, Atlanta, GA.
Mastered by Bob Ludwig at Gateway Mastering Studios, Portland, ME.

foobar2000 1.4.4 / Dynamic Range Meter 1.1.1

––––––––––––––––––––––––––––––––––––––––
Analyzed: Elton John / Peach Tree Road
––––––––––––––––––––––––––––––––––––––––

DR Peak RMS Duration Track
––––––––––––––––––––––––––––––––––––––––
DR12 -5.11 dB -20.16 dB 3:58 01-The Weight Of The World
DR13 -4.59 dB -19.48 dB 4:39 02-Porch Swing In Tupelo
DR11 -4.67 dB -18.56 dB 4:04 03-Answer In The Sky
DR11 -5.08 dB -17.85 dB 5:02 04-Turn The Lights Out When You Leave
DR12 -4.88 dB -19.22 dB 4:12 05-My Elusive Drug
DR11 -4.92 dB -17.34 dB 4:27 06-They Call Her The Cat
DR11 -5.01 dB -17.90 dB 4:31 07-Freaks In Love
DR12 -4.39 dB -18.91 dB 4:52 08-All That I'm Allowed
DR11 -4.96 dB -18.89 dB 3:39 09-I Stop And I Breathe
DR12 -5.04 dB -20.13 dB 4:15 10-Too Many Tears
DR12 -4.85 dB -19.08 dB 3:50 11-It's Getting Dark In Here
DR11 -4.52 dB -18.25 dB 4:35 12-Can't Keep This From You
––––––––––––––––––––––––––––––––––––––––

Number of tracks: 12
Official DR value: DR12

Samplerate: 2822400 Hz / PCM Samplerate: 176400 Hz
Channels: 6
Bits per sample: 1
Bitrate: 16934 kbps
Codec: DST64
================================================================================

––––––––––––––––––––––––––––––––––––––––
Analyzed: Elton John / Peach Tree Road
––––––––––––––––––––––––––––––––––––––––

DR Peak RMS Duration Track
––––––––––––––––––––––––––––––––––––––––
DR9 -5.12 dB -17.01 dB 3:58 01-The Weight Of The World
DR10 -5.08 dB -16.53 dB 4:39 02-Porch Swing In Tupelo
DR9 -4.58 dB -15.76 dB 4:04 03-Answer In The Sky
DR9 -5.07 dB -15.17 dB 5:02 04-Turn The Lights Out When You Leave
DR10 -5.05 dB -17.23 dB 4:12 05-My Elusive Drug
DR9 -4.92 dB -15.08 dB 4:27 06-They Call Her The Cat
DR8 -4.99 dB -15.36 dB 4:31 07-Freaks In Love
DR9 -4.70 dB -15.96 dB 4:52 08-All That I'm Allowed
DR9 -5.13 dB -16.21 dB 3:39 09-I Stop And I Breathe
DR10 -5.12 dB -17.37 dB 4:15 10-Too Many Tears
DR9 -4.88 dB -16.04 dB 3:50 11-It's Getting Dark In Here
DR9 -4.96 dB -15.91 dB 4:35 12-Can't Keep This From You
––––––––––––––––––––––––––––––––––––––––

Number of tracks: 12
Official DR value: DR9

Samplerate: 2822400 Hz / PCM Samplerate: 176400 Hz
Channels: 2
Bits per sample: 1
Bitrate: 5645 kbps
Codec: DST64


Thanks to PS³SACD!
Uncompressed SACD ISO size > 3,16 GB

ELTON JOHN on MCH SACDs
>