Elvin Jones - Dear John C. (1965/2011/2013) [DSD64 + Hi-Res FLAC]

Posted By: HDV
Elvin Jones - Dear John C. (1965/2011/2013) [DSD64 + Hi-Res FLAC]

Elvin Jones - Dear John C. (1965/2011/2013)
DSD64 (.dsf) 1 bit/2,8 MHz | Time - 39:12 minutes | 1,01 GB
FLAC (tracks) 24-bit/88,2 kHz | Time - 42:36 minutes | 813 MB
Studio Master, Official Digital Download | Artwork: Digital booklet

Drummer Elvin Jones may have been breaking down new rhythmic boundaries at the time with John Coltrane's Quartet but his own sessions as a leader were not all that innovative. This quartet set with altoist Charlie Mariano, bassist Richard Davis and either Roland Hanna or Hank Jones on piano is an example of how the avant-garde of the era was starting to influence the more mainstream players. The music is in general safe but enjoyable with the virtuosic bassist Richard Davis often taking solo honors on what was in reality a modern bop date.

The second album by Elvin Jones as sole title rights leader (excluding the co-op ensemble that recorded the stunning and essential progressive jazz icon Illumination!) has the drummer sounding more like a backup musician, as he claims no compositional duties or noticeable solo space. In fact, this is one of the very best albums in the career of alto saxophonist Charlie Mariano, who occupies the bulk of lead lines and improvising responsibilities. He's so up-front, and on an instrument that is not John Coltrane's main instrument – the tenor sax – that the title is also a bit of a misnomer. The value of Jones as a bandleader lies in his concept of using fellow Detroiter Sir Roland Hanna or brother Hank Jones on selected tracks, or in the case of three tracks, no pianist. Bassist Richard Davis rounds out this truly brilliant ensemble of burgeoning mid-'60s jazz stars, who play an enticing collection of standards, bop, compositions of Bob Hammer, and originals from several modern sources. A stone cold bebopper and Charlie Parker devotee at the time of this recording. Mariano is the standout performer. He swings easily but mightily on the title track paralleling Coltrane's "Milestones," stretches the Charles Mingus evergreen "Reincarnation of a Lovebird" (titled here as "Love Bird"), and pulls out all the stops with Hank Jones during an only slightly flawed (they miss two notes) version of the tricky "Anthropology." They tack a calypso beat onto Duke Ellington's "Fantazm" in a playful, modern dress, and stroll on the quirky Hammer composition "That Five-Four Bag" as an offshoot retort to Dave Brubeck's "Take Five." The three tracks sans piano include a walking version of "Everything Happens to Me"; the ballad "Smoke Rings," where the band excepting Mariano is relaxed; and Frank Sinatra's "This Love of Mine," where the emotive saxophonist dips into humor, even a bit ribald. The variety from cut to cut is engaging, and there's nothing over the top, even the drumming of Elvin Jones. With the musicality at a high level, Dear John C. needs revisiting by drumming students and jazz fans to note how teamwork, shared values, and held-in-check dynamics benefit the overall quality of music. It seems this recording is underrated when over time it should never be. Dear John C. is deserving of an excellent rating.

Tracklist:

01 - Dear John C
02 - Smoke Rings
03 - Love Bird
04 - Feeling Good
05 - Anthropology
06 - This Love Of Mine
07 - Fantazm
08 - Ballade
09 - Everything Happens To Me

Produced by Bob Thiele. Engineered by Rudy Van Gelder.
Recorded on February 23, 1965 (tracks 2,4,5,6,7), and February 25, 1965 (tracks 1,3,8,9)
Mastered by Kevin Gray.

Musicians:
Elvin Jones – drums
Charlie Mariano - alto saxophone
Roland Hanna - piano on "4,5,7"
Hank Jones - piano on "1,3,8"
Richard Davis – bass

Analyzed: Elvin Jones / Dear John C.
––––––––––––––––––––––––––––––––––––––––

DR Peak RMS Duration Track
––––––––––––––––––––––––––––––––––––––––
DR13 -7.07 dB -23.97 dB 3:54 01-Dear John C
DR15 -7.70 dB -28.35 dB 3:41 02-Smoke Rings
DR15 -7.85 dB -26.03 dB 3:49 03-Love Bird
DR12 -10.22 dB -27.09 dB 4:06 04-Feeling Good
DR14 -6.77 dB -25.78 dB 4:11 05-Anthropology
DR14 -5.64 dB -24.58 dB 4:21 06-This Love Of Mine
DR14 -7.41 dB -25.05 dB 3:57 07-Fantazm
DR13 -10.40 dB -27.60 dB 5:19 08-Ballade
DR14 -5.77 dB -24.37 dB 5:53 09-Everything Happens To Me
––––––––––––––––––––––––––––––––––––––––

Number of tracks: 9
Official DR value: DR14

Samplerate: 2822400 Hz / PCM Samplerate: 88200 Hz
Channels: 2
Bits per sample: 1
Bitrate: 5645 kbps
Codec: DSD64
================================================================================


Thanks to the Original customer!