Emily Jane White - Blood/Lines (2013) [Official Digital Download 24-bit/96kHz]

Posted By: HDV
Emily Jane White - Blood/Lines (2013) [Official Digital Download 24-bit/96kHz]

Emily Jane White - Blood / Lines (2013)
FLAC (tracks) 24-bit/96 kHz | Time - 43:50 minutes | 964 MB
Studio Master, Official Digital Download | Artwork: Front cover

Emily Jane White is an American singer and songwriter from Oakland, California who has released five solo albums and toured internationally. In December 2013, White released Blood/Lines that included a contribution by Marissa Nadler. It was described as "a new stylistic development in her repertoire" and having a "neo-gothic feel".

After releasing three albums in three years (2008s Dark Undercoat, 2009s Victorian America, and 2010s Ode To Sentience), Emily Jane White wrote over 100 sketches between January 2011 and October 2012. Her new album Blood Lines is a selected compilation of these songs. Recorded in a secluded studio in Sonoma County, the quiet environment provided Emily a place to explore new directions with artistic integrity and creative control, layering synthesizer, electric guitar, and multiple tracks of vocals into nine heavily reverbed scenes. With the help of friends and collaborators, Emilys worlds were diversified with strings, backing vocals, and heavy drums.


Since her career started, White has relied on a sweeping, dramatic sound, and her work has only gotten more grandiose as she’s progressed. White’s development as an artist mirrors that of PJ Harvey in many ways, and Harvey stands out as one of White’s key influences. Blood/Lines ends up being a culmination of sorts for White, as it finds her settling into a very comfortable creative groove. Her fourth album in as many years, Blood/Lines does demonstrate White’s remarkably rapid artistic growth. Here, she moves further and further away from the spare, guitar-driven moodiness that she’s done well so far (and that the likes of Scout Niblett continue to do) and towards a more sprawling, sweeping sound using an interesting method: the album’s nine songs were mended together from sketches instead of being written as full pieces. For the most part, it works. “Faster Than the Devil” stands out as an example of everything that goes right on Blood/Lines. It’s a brooding number that reaches a sort of grandiosity, anchored by White’s powerful voice and eerie backing vocals supplied by Marissa Nadler. Even stronger is “Keely”, where White’s vocals, backed by an evocative set of synth-strings, hit a peak of tenderness that becomes a high point for the album. Though it may be a missed opportunity at times, Blood/Lines still represents a crucial step in White’s development as an artist. Far from being the PJ Harvey/Kate Bush knockoff that she was unfairly pigeonholed as early in her career, White has found a unique trail to blaze, and there’s plenty about Blood/Lines that demonstrates just how great she can be. However, should she create the masterpiece that she has in her, it’ll be hard to look back on this album as little more than a missed opportunity.

Tracklist:

01 - My Beloved
02 - Faster Than the Devil
03 - Keeley
04 - Thoroughbred
05 - Wake
06 - Dandelion Daze
07 - Holiday Song
08 - The Roses
09 - The Wolves

Analyzed: Emily Jane White / Blood / Lines
––––––––––––––––––––––––––––––––––––––––

DR Peak RMS Duration Track
––––––––––––––––––––––––––––––––––––––––
DR6 -0.30 dB -7.37 dB 5:07 01-My Beloved
DR6 -0.30 dB -7.46 dB 4:32 02-Faster Than the Devil
DR6 -0.30 dB -8.07 dB 5:48 03-Keeley
DR6 -0.30 dB -8.41 dB 3:37 04-Thoroughbred
DR5 -0.30 dB -8.48 dB 6:02 05-Wake
DR6 -0.30 dB -8.59 dB 3:23 06-Dandelion Daze
DR6 -0.30 dB -7.70 dB 4:38 07-Holiday Song
DR6 -0.30 dB -8.58 dB 4:57 08-The Roses
DR6 -0.30 dB -8.41 dB 5:45 09-The Wolves
––––––––––––––––––––––––––––––––––––––––

Number of tracks: 9
Official DR value: DR6

Samplerate: 96000 Hz
Channels: 2
Bits per sample: 24
Bitrate: 2873 kbps
Codec: FLAC
================================================================================


Thanks to the Original customer!