Emmanuelle Swiercz - Chopin: Nocturnes (2015) [Official Digital Download 24/96]

Posted By: El Misha
Emmanuelle Swiercz - Chopin: Nocturnes (2015) [Official Digital Download 24/96]

Emmanuelle Swiercz - Chopin: Nocturnes (2015)
FLAC (tracks) 24-bit/96 kHz | Time - 01:53:24 | 1.65 GB
Studio Master, Official Digital Download | Artwork: Front cover+digital booklet

Emmanuelle Swiercz started the piano at 9. Two years later she gave her first performance with an orchestra. At the age of 16 she was unanimously accepted by the jury of the National Superior Conservatory of music and dance in Paris into the classes of Michel Béroff, Denis Pascal and Marie-Françoise Bucquet. In 1999, after graduating with distinction, she took part in proficiency courses and simultaneously attended master-classes with György Sebök, György Kurtág, Dmitri Bashkirov, Leon Fleisher and Murray Perahia.
Emmanuelle was sponsored by the Foundation of the French Group Banques Populaires, by the Cziffra Foundation, by the Musical Forum of Normandy, and by the Musical Patronage of SocGen. She won the second prize at the Ricardo Viñes International Competition and the International Music Tournament in Rome, the third Prize at the Città di Camaiore International Competition; she was awarded “Prix Spécial” at the Maria-Canals International Competition. In addition, with the backing of the Musical Patronage of SocGen, Emmanuelle and four other pianists recorded all the piano sonatas by Alexander Scriabin.



Tracklist:

01. Emmanuelle Swiercz - I. Larghetto en si bémol mineur / in B-Flat Minor
02. Emmanuelle Swiercz - II. Andante en mi bémol majeur / in E-Flat Major
03. Emmanuelle Swiercz - III. Allegretto en si majeur / in B Major
04. Emmanuelle Swiercz - I. Andante cantabile en fa majeur / in F Major
05. Emmanuelle Swiercz - II. Larghetto en fa dièse majeur / in F-Sharp Major
06. Emmanuelle Swiercz - III. Lento en sol mineur / in G Minor
07. Emmanuelle Swiercz - I. Larghetto en do dièse mineur / in C-Sharp Minor
08. Emmanuelle Swiercz - II. Lento sostenuto en la bémol majeur / in D-Flat Major
09. Emmanuelle Swiercz - I. Andante sostenuto en si majeur / in B Major
10. Emmanuelle Swiercz - II. Lento en la bémol majeur / in A-flat Major
11. Emmanuelle Swiercz - I. Andante sostenuto en sol mineur / in G Minor
12. Emmanuelle Swiercz - II. Andantino en sol majeur / in G Major
13. Emmanuelle Swiercz - I. Lento en do mineur / in C Minor
14. Emmanuelle Swiercz - II. Andantino en fa dièse mineur / in F-Sharp Minor
15. Emmanuelle Swiercz - I. Andante en fa mineur / in F Minor
16. Emmanuelle Swiercz - II. Lento sostenuto en mi bémol majeur / in E-Flat Major
17. Emmanuelle Swiercz - I. Andante en si majeur / in B Major
18. Emmanuelle Swiercz - II. Lento en mi majeur / in E Major
19. Emmanuelle Swiercz - Andante en mi mineur / in E Minor
20. Emmanuelle Swiercz - Nocturne en do mineur / in C Minor
21. Emmanuelle Swiercz - Con grande espressione, en do dièse mineur / in C-Sharp Minor

foobar2000 1.3.9 / Dynamic Range Meter 1.1.1
log date: 2019-09-17 11:08:25

––––––––––––––––––––––––––––––––––––––––
Analyzed: Emmanuelle Swiercz / Chopin : Nocturnes
––––––––––––––––––––––––––––––––––––––––

DR Peak RMS Duration Track
––––––––––––––––––––––––––––––––––––––––
DR14 -1.63 dB -21.40 dB 5:38 01-I. Larghetto en si bémol mineur / in B-Flat Minor
DR16 -0.49 dB -23.27 dB 4:30 02-II. Andante en mi bémol majeur / in E-Flat Major
DR13 -0.33 dB -18.89 dB 7:18 03-III. Allegretto en si majeur / in B Major
DR14 -0.46 dB -21.58 dB 4:16 04-I. Andante cantabile en fa majeur / in F Major
DR13 -0.64 dB -21.26 dB 3:26 05-II. Larghetto en fa dièse majeur / in F-Sharp Major
DR17 -0.33 dB -24.39 dB 4:49 06-III. Lento en sol mineur / in G Minor
DR12 -0.33 dB -18.40 dB 5:12 07-I. Larghetto en do dièse mineur / in C-Sharp Minor
DR14 -0.88 dB -21.33 dB 5:52 08-II. Lento sostenuto en la bémol majeur / in D-Flat Major
DR15 -0.33 dB -20.72 dB 4:57 09-I. Andante sostenuto en si majeur / in B Major
DR12 -2.50 dB -20.52 dB 5:36 10-II. Lento en la bémol majeur / in A-flat Major
DR13 -5.30 dB -24.88 dB 6:03 11-I. Andante sostenuto en sol mineur / in G Minor
DR13 -4.52 dB -23.41 dB 5:52 12-II. Andantino en sol majeur / in G Major
DR10 -0.35 dB -16.51 dB 6:49 13-I. Lento en do mineur / in C Minor
DR14 -0.35 dB -20.06 dB 8:07 14-II. Andantino en fa dièse mineur / in F-Sharp Minor
DR15 -1.85 dB -22.72 dB 5:25 15-I. Andante en fa mineur / in F Minor
DR13 -3.88 dB -22.32 dB 5:10 16-II. Lento sostenuto en mi bémol majeur / in E-Flat Major
DR16 -3.81 dB -24.87 dB 6:59 17-I. Andante en si majeur / in B Major
DR14 -2.23 dB -22.73 dB 6:10 18-II. Lento en mi majeur / in E Major
DR14 -1.41 dB -21.29 dB 4:15 19-Andante en mi mineur / in E Minor
DR12 -2.61 dB -21.72 dB 2:47 20-Nocturne en do mineur / in C Minor
DR14 -1.92 dB -22.95 dB 4:13 21-Con grande espressione, en do dièse mineur / in C-Sharp Minor
––––––––––––––––––––––––––––––––––––––––

Number of tracks: 21
Official DR value: DR14

Samplerate: 96000 Hz
Channels: 2
Bits per sample: 24
Bitrate: 2052 kbps
Codec: FLAC
================================================================================



Thanks to the Original customer!