Enrico Rava - Renaissance (2002) [Japan 2016] SACD ISO + Hi-Res FLAC

Posted By: HDAtall
Enrico Rava - Renaissance (2002) [Japan 2016] SACD ISO + Hi-Res FLAC

Enrico Rava - Renaissance (2002) [Japan 2016]
SACD Rip | SACD ISO | DSD64 2.0 > 1-bit/2.8224 MHz | 56:53 minutes | Front/Rear Covers | 1,89 GB
or FLAC(converted with foobar2000 to tracks) 24bit/88,2 kHz | Front/Rear Covers | 1,26 GB

Enrico Rava is a jazz trumpeter and arguably one of the best known Italian jazz musicians. In the 1970s and 1980s he worked with Pat Metheny, Michel Petrucciani, John Abercrombie, Joe Henderson, Richard Galliano, Miroslav Vitouš, Andrea Centazzo, Joe Lovano, Gil Evans and Cecil Taylor. He has also worked with Carla Bley, Lee Konitz, Jeanne Lee, Paul Motian, and Roswell Rudd. Chiefly an exponent of bebop jazz, Rava has also played in avant-garde jazz settings.

Enrico Rava is an Italian jazz trumpeter. He started on trombone, then changed to the trumpet after hearing Miles Davis. With trumpeter Paolo Fresu, Rava recorded four albums on the influence of Bix Beiderbecke, Louis Armstrong, Chet Baker, and Miles Davis. Also of note are his albums Rava, L'Opera Va' and Carmen, which are his interpretations of operatic arias and overtures. In 2001, he founded a quintet with pianist Stefano Bollani and toured with Gato Barbieri and Aldo Romano. In the trio Europeans, he worked with Eberhard Weber and Swiss percussionist Reto Weber. In June 2005, he was awarded an Honorary Doctorate of Music from Berklee College of Music at the twentieth anniversary of jazz education at the Umbria Jazz Festival, in Perugia, Italy.

Tracklist:

01. It Ain't Necessarily So
02. Dear Old Stockholm
03. Good Bye
04. My Funny Valentine
05. Vision
06. Fran Dance
07. Nature Boy
08. Gnid
09. There's No You

Produced, Mixed & Mastered by Tetsuo Hara. Engineered by Simone Cianmarughi.
Recorded on February 12 & 13, 2002 at House Recording Studio in Rome, Italy.
Venus Hyper Magnum Sound Direct Mix. VENUS Japan # VHGD-142.

Personnel
Enrico Rava - trumpet, flugelhorn
Stefano Bollani - piano
Rosario Bonaccorso - bass
Roberto Gatto - drums

foobar2000 1.3.16 / Dynamic Range Meter 1.1.1

––––––––––––––––––––––––––––––––––––––––
Analyzed: ENRICO RAVA / Reneissance
––––––––––––––––––––––––––––––––––––––––

DR Peak RMS Duration Track
––––––––––––––––––––––––––––––––––––––––
DR6 -4.78 dB -12.03 dB 6:10 01-It Ain't Necessarily So
DR6 -4.97 dB -11.83 dB 5:47 02-Dear Old Stockholm
DR6 -5.34 dB -13.04 dB 6:12 03-Good Bye
DR7 -4.79 dB -13.06 dB 8:53 04-My Funny Valentine
DR6 -5.15 dB -12.60 dB 5:51 05-Vision
DR6 -4.86 dB -12.19 dB 6:53 06-Fran Dance
DR6 -5.36 dB -13.05 dB 4:20 07-Nature Boy
DR6 -4.98 dB -12.35 dB 7:02 08-Gnid
DR7 -5.30 dB -13.16 dB 5:45 09-There's No You
––––––––––––––––––––––––––––––––––––––––

Number of tracks: 9
Official DR value: DR6

Samplerate: 2822400 Hz / PCM Samplerate: 88200 Hz
Channels: 2
Bits per sample: 1
Bitrate: 5645 kbps
Codec: DSD64


Thanks to jazzyman!
Uncompressed SACD ISO size > 2,29 GB
>