Eric Clapton - Slowhand At 70: Live At The Royal Albert Hall (2015) [BDRip FLAC 24/96] RE-UP

Posted By: HDV
Eric Clapton - Slowhand At 70: Live At The Royal Albert Hall (2015) [BDRip FLAC 24/96] RE-UP

Eric Clapton - Slowhand At 70: Live At The Royal Albert Hall (2015)
FLAC (tracks) 24-bit/96 kHz | Time - 119:56 minutes | 2,59 GB
Blu-Ray Audio Rip | Sourced Track - LPCM 2.0 Stereo | Front cover

Slowhand at 70: Live at the Royal Albert Hall is a concert film released by the British pop-rock musician Eric Clapton. It features a selection of songs, Clapton performed on May 21, 2015 while he played during his "70th Birthday Celebration" tour at London's iconic Royal Albert Hall. While on tour in London, Clapton broke the 200th concert mark, making him the act, who has most performed at the British venue. The film was released from September 14, 2015 onwards via cinema broadcasting in various territories. The cinema release also featured an in-depth report about Clapton's history at the Royal Albert Hall. A DVD, Blu-ray, compact disc and grammophone record release of the performance was released on November 13, 2015.

Eric Clapton booked a series of shows at his beloved venue the Royal Albert Hall in May of 2015, choosing to document this stint via a concert film and an accompanying album, both called Slowhand at 70: Live at the Royal Albert Hall. This is not the first live album of Clapton's to be recorded at the Royal Albert Hall – 1991's 24 Nights documented a near month-long residency at the London hall – and, generally, this performance does have a familiar feel, thanks in part to the set and in part to Clapton playing with a band who has been with him for a long time. There are a few surprises – Paul Carrack takes lead on "You Are So Beautiful," played in tribute to then-recently departed Joe Cocker; Andy Fairweather-Low sings the closer, "High Time We Went" – but this is a lived-in, almost stately affair, relying heavily on blues and Slowhand staples, all taken at a dignified midtempo. Perhaps appropriately, Clapton's performance isn't fiery, but he does dig into these grooves and seems to enjoy being with his old mates, and playing his old tunes in his old haunt.

Tracklist:

01 - Somebody's Knockin' on My Door
02 - Key to the Highway
03 - Tell the Truth
04 - Pretending
05 - Hoochie Coochie Man
06 - You Are So Beautiful (feat. Paul Carrack)
07 - Can't Find My Way Home (feat. Nathan East)
08 - I Shot the Sheriff
09 - Driftin' Blues
10 - Nobody Knows You When You're Down and Out
11 - Tears in Heaven
12 - Layla
13 - Let It Rain
14 - Wonderful Tonight
15 - Crossroads
16 - Cocaine
17 - High Time We Went (feat. Paul Carrack, Andy Fairweather Low)
18 - Little Queen of Spades [Bonus Track]

Note: Track "18" is 24bit/48kHz.

Analyzed: Eric Clapton / Slowhand at 70: Live at The Royal Albert Hall
––––––––––––––––––––––––––––––––––––––––

DR Peak RMS Duration Track
––––––––––––––––––––––––––––––––––––––––
DR7 -2.00 dB -10.33 dB 7:37 01-Somebody's Knockin' on My Door
DR7 -2.09 dB -10.14 dB 4:55 02-Key to the Highway
DR7 -2.07 dB -10.15 dB 6:49 03-Tell the Truth
DR7 -2.07 dB -10.02 dB 5:33 04-Pretending
DR7 -2.05 dB -10.66 dB 5:36 05-Hoochie Coochie Man
DR9 -2.10 dB -13.30 dB 4:44 06-You Are So Beautiful (feat. Paul Carrack)
DR7 -2.08 dB -11.37 dB 6:07 07-Can't Find My Way Home (feat. Nathan East)
DR7 -2.08 dB -10.72 dB 9:32 08-I Shot the Sheriff
DR11 -2.00 dB -15.28 dB 6:25 09-Driftin' Blues
DR8 -2.00 dB -11.72 dB 3:33 10-Nobody Knows You When You're Down and Out
DR8 -2.00 dB -12.78 dB 5:02 11-Tears in Heaven
DR9 -2.00 dB -13.56 dB 6:57 12-Layla
DR7 -2.08 dB -10.35 dB 5:34 13-Let It Rain
DR7 -2.09 dB -11.54 dB 3:54 14-Wonderful Tonight
DR7 -2.09 dB -10.57 dB 6:24 15-Crossroads
DR7 -2.07 dB -10.83 dB 8:46 16-Cocaine
DR6 -2.09 dB -9.55 dB 5:29 17-High Time We Went (feat. Paul Carrack, Andy Fairweather Low)
––––––––––––––––––––––––––––––––––––––––

Number of tracks: 17
Official DR value: DR7

Samplerate: 96000 Hz
Channels: 2
Bits per sample: 24
Bitrate: 3273 kbps
Codec: FLAC

––––––––––––––––––––––––––––––––––––––––
Statistics for: 18-Little Queen of Spades (bonus track)
Number of samples: 48896880
Duration: 16:59
––––––––––––––––––––––––––––––––––––––––

Left Right

Peak Value: 0.00 dB –- 0.00 dB
Avg RMS: -11.37 dB –- -11.33 dB
DR channel: 8.86 dB –- 8.13 dB
––––––––––––––––––––––––––––––––––––––––

Official DR Value: DR8

Samplerate: 48000 Hz
Channels: 2
Bits per sample: 24
Bitrate: 1709 kbps
Codec: FLAC
================================================================================