Fleetwood Mac - Mirage (1982/2011) [Official Digital Download 24/192]

Posted By: HDV
Fleetwood Mac - Mirage (1982/2011) [Official Digital Download 24/192]

Fleetwood Mac - Mirage (1982/2011)
FLAC (tracks) 24-bit/192 kHz | Time - 43:19 minutes | 1,58 GB
Studio Master, Official Digital Download | Artwork: Front cover

Stevie Nicks had already launched a solo career by the time this album was released, but that didn't mean Nicks, Lindsey Buckingham, and Chrissie McVie wouldn't continue to dash off engaging, pop numbers. Mirage possesses a handful of high points that would entice any FM fan. Whether it is Buckingham's "Book of Love", or Nicks's mesmerizing "Gypsy", or McVie's contagious "Love in Store", the enchanting chemistry is ever-present.

Fleetwood Mac retreated from the insular strangeness of Tusk and returned to straightforward pop songcraft for Mirage. Boasting a glossy, friendly production that makes even the lesser numbers pleasant and ingratiating, Mirage nonetheless suffers from a lack of substance. Rumours had raw emotion to give it a core, and Tusk had Lindsey Buckingham's runaway ambition. For its part, Mirage sounds as if its sole goal is to sustain Fleetwood Mac's popularity, and while there may be a handful of terrific songs – notably the hit singles "Gypsy," "Love in Store," and "Hold Me" – it simply isn't as compelling as the group's previous three albums.

Tracklist:

01 - Love In Store
02 - Can't Go Back
03 - That's Alright
04 - Book Of Love
05 - Gypsy
06 - Only Over You
07 - Empire State
08 - Straight Back
09 - Hold Me
10 - Oh Diane
11 - Eyes Of The World
12 - Wish You Were Here

Produced by Fleetwood Mac, Lindsey Buckingham, Richard Dashut, Ken Caillat. Engineered by Ken Caillat, Richard Dashut.
Recorded at Ler Chateau, Herouville, France; Larrabee Sounds, Los Angeles; Record Plant, Los Angeles, California.

Musicians:
Lindsay Buckingham - vocals, guitar
Christine McVie - vocals, keyboards
Stevie Nicks - vocals
John McVie - bass
Mick Fleetwood - drums, percussion
Additional musicians:
Ray Lindsey - guitar

Analyzed: Fleetwood Mac / Mirage
––––––––––––––––––––––––––––––––––––––––

DR Peak RMS Duration Track
––––––––––––––––––––––––––––––––––––––––
DR14 0.00 dB -16.96 dB 3:16 01-Love In Store
DR13 -1.86 dB -16.80 dB 2:45 02-Can't Go Back
DR13 -1.54 dB -17.93 dB 3:11 03-That's Alright
DR13 -1.14 dB -17.33 dB 3:23 04-Book Of Love
DR15 -0.04 dB -18.38 dB 4:29 05-Gypsy
DR13 -2.68 dB -20.04 dB 4:10 06-Only Over You
DR14 -3.02 dB -19.04 dB 2:53 07-Empire State
DR14 -1.58 dB -19.48 dB 4:13 08-Straight Back
DR13 -1.75 dB -19.02 dB 3:46 09-Hold Me
DR14 -3.84 dB -20.20 dB 2:38 10-Oh Diane
DR11 -6.21 dB -19.06 dB 3:48 11-Eyes Of The World
DR14 -1.00 dB -18.19 dB 4:47 12-Wish You Were Here
––––––––––––––––––––––––––––––––––––––––

Number of tracks: 12
Official DR value: DR14

Samplerate: 192000 Hz
Channels: 2
Bits per sample: 24
Bitrate: 4896 kbps
Codec: FLAC
================================================================================


Thanks to the Original customer!