Foreigner - 4 (1981/2001/2012) [Official Digital Download 24bit/96kHz] RE-UP

Posted By: HDV
Foreigner - 4 (1981/2001/2012) [Official Digital Download 24bit/96kHz] RE-UP

Foreigner - 4 (1981/2001/2012) [Remastered]
FLAC (tracks) 24 bit/96 kHz | Time - 42:39 minutes | 1,01 GB
Studio Master, Official Digital Download | Artwork: Front cover

Originally released in 1981, Foreigner’s fourth album charted at #1 on the U.S. and included the hugely successful singles "Urgent," "Waiting for a Girl Like You," and "Juke Box Hero". Experience this seminal 6X Platinum selling progressive rock album as a high resolution recording.

Over the course of their first three late-'70s albums, Foreigner had firmly established themselves (along with Journey and Styx) as one of the top AOR bands of the era. But the band was still looking for that grand slam of a record that would push them to the very top of the heap. Released in 1981, 4 would be that album. In producer Robert John "Mutt" Lange – fresh off his massive success with AC/DC's Back in Black – guitarist and all-around mastermind Mick Jones found both the catalyst to achieve this and his perfect musical soulmate. Lange's legendary obsessive attention to detail and Jones' highly disciplined guitar heroics (which he never allowed to get in the way of a great song) resulted in a collaboration of unprecedented, sparkling efficiency where not a single note is wasted. "Nightlife" is only the first in a series ("Woman in Black," "Don't Let Go," the '50s-tinged "Luanne") of energetic, nearly flawless melodic rockers, and with "Juke Box Hero," the band somehow managed to create both a mainstream hit single and a highly unique-sounding track, alternating heavy metal guitar riffing, chorused vocals, and one of the ultimate "wanna be a rock star" lyrics. As for the mandatory power ballad, the band also reached unparalleled heights with "Waiting for a Girl Like You." One of the decade's most successful cross-genre tearjerkers, it has since become a staple of soft rock radio and completely eclipsed the album's other very lovely ballad, "Girl on the Moon," in the process. And last but not least, the surprisingly funky "Urgent" proved to be one of the band's most memorable and uncharacteristic smash hits, thanks to Junior Walker's signature saxophone solo. Through it all, vocalist Lou Gramm does his part, delivering a dazzling performance that confirmed his status as one of the finest voices of his generation. Three years later, Foreigner would achieve even greater success on a pop level with the uneven Agent Provocateur, but by then Jones and Gramm were locked in an escalating war of egos that would soon lead to the band's demise. All things considered, 4 remains Foreigner's career peak.

Tracklist:

01 - Night Life
02 - Juke Box Hero
03 - Break It Up
04 - Waiting For A Girl Like You
05 - Luanne
06 - Urgent
07 - I'm Gonna Win
08 - Woman In Black
09 - Girl On The Moon
10 - Don't Let Go

Analyzed: Foreigner / 4
––––––––––––––––––––––––––––––––––––––––

DR Peak RMS Duration Track
––––––––––––––––––––––––––––––––––––––––
DR8 -0.05 dB -9.72 dB 3:50 01-Night Life
DR8 -0.05 dB -9.75 dB 4:20 02-Juke Box Hero
DR7 -0.05 dB -9.32 dB 4:14 03-Break It Up
DR9 -0.05 dB -11.04 dB 4:53 04-Waiting For A Girl Like You
DR8 -0.05 dB -9.84 dB 3:27 05-Luanne
DR9 -0.05 dB -10.79 dB 4:32 06-Urgent
DR9 -0.05 dB -10.81 dB 4:54 07-I'm Gonna Win
DR7 -0.05 dB -9.90 dB 4:46 08-Woman In Black
DR9 -0.05 dB -10.26 dB 3:53 09-Girl On The Moon
DR7 -0.05 dB -9.58 dB 3:50 10-Don't Let Go
––––––––––––––––––––––––––––––––––––––––

Number of tracks: 10
Official DR value: DR8

Samplerate: 96000 Hz
Channels: 2
Bits per sample: 24
Bitrate: 3219 kbps
Codec: FLAC
================================================================================


Thanks to the Original customer!