Subcategories

Forte Di Quattro - Forte Di Quattro (2017) [Official Digital Download]

Posted By: HDV
Forte Di Quattro - Forte Di Quattro (2017) [Official Digital Download]

Forte Di Quattro - Forte Di Quattro (2017)
FLAC (tracks) 24-bit/48 kHz | Time - 61:31 minutes | 757 MB
Studio Master, Official Digital Download | Artwork: Front cover

K-pop levels up with popera Forte di Quattro. Combining elements of pop and opera, the so-called 'popera' singers performed four tracks off their first album. Crossover is a common genre in other countries, but despite Korean artists fusing different genres for decades, many Korean audiences are unfamiliar with 'crossover', not seeing it as a separate genre in itself. "Many Koreans think crossover means popera, but that's a misconception. Popera is a kind of a crossover, but there can be many more, such as the fusion of jazz and Korean traditional folk songs, or of rap and classical music. So, the genre will always be developing".

Phantom Singer winners Lee Byu Ri, Ko Hun Jung, Kim Hyun Su and Son Tae Jin form the first Korean crossover quartet Forte Di Quattro! Their debut release features new songs by world-famous crossover composers, as well as pop classics and songs previously performed on the show.

Tracklist:

01 - Stella Lontana
02 - Tuo Per Sempre
03 - Odissea
04 - Il Libro Dell'Amore
05 - Today With You
06 - Bred Dina Vida Vingar
07 - Cinema Paradiso
08 - La Vita è Bella
09 - Fantasma D'Amore
10 - Senza Parole
11 - Destino
12 - Viva La Vida
13 - The Last Don Quixote
14 - Love Ballad

Analyzed: Forte Di Quattro / Forte Di Quattro : Forte Di Quattro
––––––––––––––––––––––––––––––––––––––––

DR Peak RMS Duration Track
––––––––––––––––––––––––––––––––––––––––
DR7 0.00 dB -9.83 dB 4:31 01-Stella Lontana
DR6 0.00 dB -9.63 dB 4:09 02-Tuo Per Sempre
DR6 0.00 dB -9.60 dB 3:55 03-Odissea
DR7 0.00 dB -10.89 dB 4:45 04-Il Libro Dell'Amore
DR7 0.00 dB -11.20 dB 4:18 05-Today With You
DR7 0.00 dB -11.05 dB 4:43 06-Bred Dina Vida Vingar
DR9 0.00 dB -12.40 dB 4:04 07-Cinema Paradiso
DR8 0.00 dB -10.88 dB 3:43 08-La Vita è Bella
DR6 0.00 dB -9.77 dB 4:53 09-Fantasma D'Amore
DR6 0.00 dB -8.36 dB 4:12 10-Senza Parole
DR6 0.00 dB -8.12 dB 4:15 11-Destino
DR7 0.00 dB -9.34 dB 4:31 12-Viva La Vida
DR7 0.00 dB -10.12 dB 4:38 13-The Last Don Quixote
DR7 0.00 dB -9.38 dB 4:55 14-Love Ballad
––––––––––––––––––––––––––––––––––––––––

Number of tracks: 14
Official DR value: DR7

Samplerate: 48000 Hz
Channels: 2
Bits per sample: 24
Bitrate: 1663 kbps
Codec: FLAC
================================================================================


Thanks to the Original customer!