Freddie Hubbard - The Artistry Of Freddie Hubbard (1963) [APO Remaster 2010] SACD ISO + Hi-Res FLAC

Posted By: HDAtall
Freddie Hubbard - The Artistry Of Freddie Hubbard (1963) [APO Remaster 2010] SACD ISO + Hi-Res FLAC

Freddie Hubbard - The Artistry Of Freddie Hubbard (1963) [Analogue Productions '2010]
SACD Rip | SACD ISO | DSD64 2.0 > 1-bit/2.8224 MHz | 43:14 minutes | Scans included | 1,26 GB
or FLAC(converted with foobar2000 to tracks) 24bit/88,2 kHz | Full Scans included | 965 MB

Over the course of his nearly five decade career, trumpeter Freddie Hubbard established himself as one of the most versatile and inventive jazz musicians of the twentieth century. The Grammy-winning virtuoso appeared on some of the most important albums in the genre, including seminal works by Ornette Coleman, Herbie Hancock, Art Blakey, John Coltrane, and countless others. The Artistry Of Freddie Hubbard, his fifth album for Impulse!, is a spellbinding piece of jazz history. Hubbard’s molten lines are augmented by the trombone work of the legendary Curtis Fuller and tenor saxophonist John Gilmore of the Sun Ra Archestra. One of the all-time great jazz records.

This 1962 effort was Freddie Hubbard's first recording under his own name for Impulse! Fellow Jazz Messenger Curtis Fuller and newcomer John Gilmore color the proceedings with added trombone and tenor saxophone, respectively. These rock-solid post-bop horn players are backed by the formidable rhythm section of Tommy Flanagan on piano, Art Davis on bass, and Louis Hayes on drums. Hubbard's shimmering style and clear tone show a clear debt to the late Clifford Brown and a nod to the bold sonic curiosity of John Coltrane. These are some hot young players pushing a classic format forward. The opening track is Duke Ellington's intoxicating "Caravan." The horns play the theme loosely above the dark undercurrent of Davis' and Hayes' playing. The piece explodes into a Hubbard solo that shows why he was the most talked-about young trumpeter of that era. The exceptional quality of his tone and range are amply displayed in his Latin-tinged version of the tender Gershwin standard "Summertime." On the closing track, "The 7th Day," Hubbard and his sextet ride a sultry cool jazz groove for all it's worth and build patiently to some bold exchanges, bowing out with a slow fade.

Tracklist:

01. Caravan
02. Bob's Place
03. Happy Times
04. Summertime
05. The 7th Day

Recorded on July 2, 1962 at Van Gelder Studio, Englewood Cliffs, New Jersey.
Mastered for this SACD by Kevin Gray at AcousTech Matering, Camarillo, CA.

Personnel
Freddie Hubbard - trumpet
Curtis Fuller - trombone
John Gilmore - tenor saxophone
Tommy Flanagan - piano
Art Davis - bass
Louis Hayes - drums

foobar2000 1.3.17 / Dynamic Range Meter 1.1.1

––––––––––––––––––––––––––––––––––––––––
Analyzed: Freddie Hubbard / The Artistry Of Freddie Hubbard
––––––––––––––––––––––––––––––––––––––––

DR Peak RMS Duration Track
––––––––––––––––––––––––––––––––––––––––
DR13 -8.75 dB -25.28 dB 7:30 01-Caravan
DR13 -9.85 dB -26.62 dB 4:32 02-Bob's Place
DR14 -8.98 dB -27.12 dB 10:08 03-Happy Times
DR14 -12.02 dB -30.50 dB 10:14 04-Summertime
DR13 -8.93 dB -26.15 dB 10:50 05-The 7th Day
––––––––––––––––––––––––––––––––––––––––

Number of tracks: 5
Official DR value: DR13

Samplerate: 2822400 Hz / PCM Samplerate: 88200 Hz
Channels: 2
Bits per sample: 1
Bitrate: 5645 kbps
Codec: DSD64


Thanks to jazzyman!
Uncompressed SACD ISO size > 1,74 GB
>