Gary Karr - Adagio D'Albinoni (1982) [Japan 2014] SACD ISO + Hi-Res FLAC

Posted By: HDAtall
Gary Karr - Adagio D'Albinoni (1982) [Japan 2014] SACD ISO + Hi-Res FLAC

Gary Karr - Adagio D'Albinoni (1982) [Japan 2014]
SACD Rip | SACD ISO | DSD64 2.0 > 1-bit/2.8224 MHz | 36:14 minutes | Scans included | 1,25 GB
or FLAC(converted with foobar2000 to tracks) 24bit/88,2 kHz | Full Scans included | 874 MB

Gary Karr, acclaimed as "the world's leading solo bassist", is, in fact, the first solo doublebassist in history to make that pursuit a full-time career. It is a career that adds new lustre to his already lustrous 1611 Amati doublebass which was given to him by the widow of Serge Koussevitzky. Since his debut with Leonard Bernstein and the New York Philharmonic in 1962, Karr has performed as soloist on six continents with orchestras, including the Chicago Symphony, London Philharmonic Orchestra, Hong Kong Philharmonic, Montreal Symphony, Simon Bolivar Orchestra (Caracas, Venezuela), Jerusalem Symphony, Oslo Philharmonic, Zurich Chamber Orchestra, and with all the major orchestras of Australia. Gary Karr performs on this release with Harmon Lewis on pipe organ for a group of classical pieces by Beethoven, Bach, and more.

Tracklist:

01. Tomaso Albinoni, Remo Giazotto: Adagio in G minor
02. Ludwig van Beethoven: Sonatina
03. Cesar Franck: Piece No. 5
04. George Frideric Handel: Sonata No.9 - Largo
05. George Frideric Handel: Sonata No.9 - Alla breve
06. George Frideric Handel: Sonata No.9 - Andante
07. George Frideric Handel: Sonata No.9 - Vivace
08. Johann Sebastian Bach, Charles Gounod: Ave Maria

Recorded on September 22, 1981 at the Vega Hall, Takarazuka-Shi, Japan.

Personnel
Gary Karr - double bass
Harmon Lewis - organ

foobar2000 1.3.17 / Dynamic Range Meter 1.1.1

––––––––––––––––––––––––––––––––––––––––
Analyzed: Gary Karr / ADAGIO D' ALBINONI
––––––––––––––––––––––––––––––––––––––––

DR Peak RMS Duration Track
––––––––––––––––––––––––––––––––––––––––
DR12 -4.75 dB -20.81 dB 8:52 01-ADAGIO IN G MINOR
DR11 -8.84 dB -25.64 dB 4:47 02-SONATINE
DR12 -11.18 dB -27.59 dB 5:58 03-PIECE V
DR11 -10.26 dB -24.83 dB 3:40 04-SONATE NO.9 IN B MINOR - Largo
DR12 -9.83 dB -26.03 dB 2:26 05-SONATE NO.9 IN B MINOR - Alla breve
DR10 -10.54 dB -24.55 dB 4:06 06-SONATE NO.9 IN B MINOR - Andante
DR11 -9.55 dB -23.32 dB 1:58 07-SONATE NO.9 IN B MINOR - Vivace
DR12 -13.06 dB -30.07 dB 4:26 08-AVE MARIA
––––––––––––––––––––––––––––––––––––––––

Number of tracks: 8
Official DR value: DR11

Samplerate: 2822400 Hz / PCM Samplerate: 88200 Hz
Channels: 2
Bits per sample: 1
Bitrate: 5645 kbps
Codec: DSD64
=========================


Thanks to the Original releaser!
Uncompressed SACD ISO size > 1,46 GB
>