Ray Charles - The Genius Of Ray Charles (1959) [MFSL 2012] PS3 ISO + Hi-Res FLAC / RE-UP

Posted By: HDAtall
Ray Charles - The Genius Of Ray Charles (1959) [MFSL 2012] PS3 ISO + Hi-Res FLAC / RE-UP

Ray Charles - The Genius Of Ray Charles (1959) [MFSL 2012]
PS3 Rip | SACD ISO | DSD64 2.0 > 1-bit/2.8224 MHz | 38:29 minutes | Scans included | 1,01 GB
or FLAC(converted with foobar2000 to tracks) 24bit/88,2 kHz | Full Scans included | 678 MB
Mobile Fidelity Sound Lab # UDSACD 2055

The Genius of Ray Charles is a 1959 album by Ray Charles. In 2003, the album was ranked number 263 on Rolling Stone magazine's list of the 500 greatest albums of all time. Some players from Ray Charles' big band are joined by many ringers from the Count Basie and Duke Ellington bands for the first half of this program, featuring Charles belting out six songs arranged by Quincy Jones. "Let the Good Times Roll" and "Deed I Do" are highlights, and there are solos by tenorman David "Fathead" Newman, trumpeter Marcus Belgrave, and (on "Two Years of Torture") tenor Paul Gonsalves. The remaining six numbers are ballads, with Charles backed by a string orchestra arranged by Ralph Burns.

Some players from Ray Charles' big band are joined by many ringers from the Count Basie and Duke Ellington bands for the first half of this program, featuring Charles belting out six songs arranged by Quincy Jones. "Let the Good Times Roll" and "Deed I Do" are highlights, and there are solos by tenorman David "Fathead" Newman, trumpeter Marcus Belgrave, and (on "Two Years of Torture") tenor Paul Gonsalves. The remaining six numbers are ballads, with Charles backed by a string orchestra arranged by Ralph Burns (including "Come Rain or Come Shine" and "Don't Let the Sun Catch You Cryin'"). Charles' voice is heard throughout in peak form, giving soul to even the veteran standards…

Tracklist:

01. Let The Good Times Roll
02. It Had To Be You
03. Alexander's Ragtime Band
04. Two Years Of Torture
05. When Your Lover Has Gone
06. Deed I Do
07. Just For A Thrill
08. You Won't Let Me Go
09. Tell Me You' Wait For Me
10. Don't Let The Sun Catch You Cryin'
11. Am I Blue
12. Come Rain Or Come Shine

foobar2000 1.2.1 / Dynamic Range Meter 1.1.1

––––––––––––––––––––––––––––––––––––––––
Analyzed: Ray Charles / The Genius Of Ray Charles
––––––––––––––––––––––––––––––––––––––––

DR Peak RMS Duration Track
––––––––––––––––––––––––––––––––––––––––
DR8 -6.40 dB -16.11 dB 2:53 01-LET THE GOOD TIMES ROLL
DR10 -6.37 dB -19.03 dB 2:45 02-IT HAD TO BE YOU
DR10 -7.31 dB -18.18 dB 2:54 03-ALEXANDER'S RAGTIME BAND
DR10 -6.63 dB -19.44 dB 3:26 04-TWO YEARS OF TORTURE
DR10 -6.08 dB -18.93 dB 2:51 05-WHEN YOUR LOVER HAS GONE
DR11 -6.19 dB -19.12 dB 2:28 06-DEED I DO
DR11 -6.79 dB -20.19 dB 3:25 07-JUST FOR A THRILL
DR10 -6.74 dB -20.70 dB 3:21 08-YOU WON'T LET ME GO
DR12 -6.26 dB -21.42 dB 3:24 09-TELL ME YOU'LL WAIT FOR ME
DR12 -6.24 dB -20.36 dB 3:45 10-DON'T LET THE SUN CATCH YOU CRYIN'
DR10 -6.73 dB -20.22 dB 3:39 11-AM I BLUE
DR12 -6.21 dB -20.60 dB 3:38 12-COME RAIN OR COME SHINE
––––––––––––––––––––––––––––––––––––––––

Number of tracks: 12
Official DR value: DR10

Samplerate: 2822400 Hz / PCM Samplerate: 88200 Hz
Channels: 2
Bits per sample: 24
Bitrate: 5645 kbps
Codec: DSD64


Thanks to PS³SACD!
Uncompressed SACD ISO size > 1,54 GB

RAY CHARLES on SACDs
>