Subcategories

Gram Parsons - GP (1973) [MFSL 2012 # UDSACD 2058] (SACD ISO) PS3 ISO + Hi-Res FLAC / RE-UP

Posted By: HDAtall
Gram Parsons - GP (1973) [MFSL 2012 # UDSACD 2058] (SACD ISO) PS3 ISO + Hi-Res FLAC / RE-UP

Gram Parsons - GP (1973) [MFSL 2012 # UDSACD 2058]
PS3 Rip | SACD ISO | DSD64 2.0 > 1-bit/2.8224 MHz | 38:56 minutes | Scans included | 1,57 GB
or FLAC(converted with foobar2000 to tracks) 24bit/88,2 kHz | Full Scans included | 752 MB

1973 Landmark Set a Profoundly Influential Record on Country, Folk, and Rock Genres. Influential doesn’t begin to capture the scope, legacy, and brilliance of Gram Parsons’ GP. By wedding traditional country threads with folk, soul, and rock fabrics, the singer/guitarist unconsciously gave birth to a new subgenre that would later evolve into what we now know as country-rock and Americana. Thematically, Parsons proves beyond his then 25-year-old age and addresses heartbreak, yearning, dreams, and wistful feelings with the lived-in conviction of someone many years his senior.

Mastered from the original master tapes, and going far beyond the multiple digital reissues that never opened up the music as promised, Mobile Fidelity’s numbered limited edition hybrid SACD brings to fore unprecedented degrees of fireplace-hearth warmth, natural organic accents, and the you-are-there vocal signatures of Parsons and partner Emmylou Harris.

Listeners that swear by the sound of albums cut in the 60s and early/mid 70s will instantly fall in love with what they hear: Every member of Parsons’ band gets their own distinct space, frequencies extend and decay, small details emerge, and that rare “breath of life” resounds throughout each note. If you’re a fan of the Byrds, Neil Young, CSN, or peak-era Bob Dylan, you need this SACD.

Akin to so many profoundly influential works of art, GP had auspicious beginnings. Parsons spent 1971 palling around with Rolling Stone Keith Richards, who, originally, was tabbed to produce. But logistical circumstances ultimately led to putting Rik Grech in the control chair. He performed on and presided over sessions that witnessed Parsons redefine music via aching ballads, gospel-styled weepers, honky-tonk barn-burners, and rollicking shuffles. The chemistry achieved and attained throughout simply boggles the mind.

Whether it’s James Burton’s dobro or guitar playing, Elvis Presley drummer Ron Tutt keeping the beat, or Glen Hardin’s tuckpointed piano riffs, the combination of instruments and deliveries translate into Southern-flavored, California-stirred, desert-ripened magic. And those nuanced vocals. Restrained, plaintive, melodic, and almost effortless, Parsons and Harris' are often the sound of angels taking country and turning into white spirituals. They are also the sound of two hearts breaking and of souls being torn into two as a result of unrequited love and unyielding passion.

GP never cracked the Billboard album charts or yielded a hit single. But time has testified on behalf of its magnificence and importance. Parsons is now seen as the golden god of country rock, and for good reason. As for his goals? He once said that he wanted to unite the people in overalls (country) with those adorned in velvet (rock). Consider the mission accomplished. GP is a temple that contemporary leaders such as Wilco, the Decemberists, the Jayhawks, and myriad others worship.

Tracklist:

01. Still Feeling Blue
02. We'll Sweep out the Ashes in the Morning
03. A Song for You
04. Streets of Baltimore
05. She
06. That's All It Took
07. The New Soft Shoe
08. Kiss the Children
09. Cry One More Time
10. How Much I've Lied
11. Big Mouth Blues

Mastered by Shawn R. Britton at Mobile Fidelity Sound Lab, Sebastopol, CA.

Analyzed: GRAM PARSONS / GP
––––––––––––––––––––––––––––––––––––––––

DR Peak RMS Duration Track
––––––––––––––––––––––––––––––––––––––––
DR12 -6.26 dB -20.13 dB 2:42 01-Still Feeling Blue
DR12 -7.01 dB -21.40 dB 3:15 02-We'll Sweep Out The Ashes In The Morning
DR12 -6.44 dB -21.62 dB 5:01 03-A Song For You
DR12 -7.21 dB -21.10 dB 2:57 04-Streets of Baltimore
DR14 -6.23 dB -23.76 dB 5:02 05-She
DR12 -6.22 dB -20.38 dB 3:01 06-That's All It Took
DR11 -6.33 dB -20.85 dB 3:56 07-The New Soft Shoe
DR12 -6.04 dB -20.22 dB 3:01 08-Kiss The Children
DR13 -6.17 dB -21.88 dB 3:40 09-Cry One More Time
DR12 -6.29 dB -21.50 dB 2:30 10-How Much I Lied
DR12 -6.27 dB -21.36 dB 3:52 11-Big Mouth Blues
––––––––––––––––––––––––––––––––––––––––

Number of tracks: 11
Official DR value: DR12

Samplerate: 2822400 Hz / PCM Samplerate: 88200 Hz
Channels: 2
Bits per sample: 24
Bitrate: 5645 kbps
Codec: DSD64


Thanks to PS³SACD!
SACD-RAR's compressed size > 1,2 GB