Grateful Dead - Red Rocks 7/8/78 (2016) [Official Digital Download 24/192]

Posted By: HDV
Grateful Dead - Red Rocks 7/8/78 (2016) [Official Digital Download 24/192]

Grateful Dead - Live at Red Rocks Ampitheatre, Morrison, CO 7/8/78 (2016)
FLAC (tracks) 24-bit/192 kHz | Time - 150:02 minutes | 5,72 GB
Studio Master, Official Digital Download | Artwork: Front cover

In the history of Grateful Dead performances, 1978 is widely praised as one of the group's finest years. This set marks the official debut of one of their first ever performances at the legendary Red Rocks Amphitheatre, a show highly sought-after by Dead Heads, and the first official release of master recordings from the long lost "Betty Boards". The complete July 8, 1978 show at Red Rocks is widely considered one of the greatest concerts in Grateful Dead history and now it's available as a three-disc set.

"It was great, but don't tell anybody". One taper wrote these words to another back in the day when Grateful Dead concerts were traded through an underground railroad, each successive dub lessening the audio quality. The show in question took place on July 8, 1978 at Colorado's Red Rocks, the last gig of the Dead's summer tour. Generally, 1978 is thought to pale in comparison to 1977 but this particular show earned a legendary reputation due to its exuberance: the first set starts running with "Bertha" and the energy doesn't let up, not even when the band slides into a worn, weary "It Must Have Been the Roses" and "Wharf Rat" or when Bill Kreutzmann and Mickey Hart set out on an intricate, intense "Rhythm Devils." If any Dead show could be called a full-on party – when they get to the concert-closing "Werewolves of London," it feels like a triumph – it's this, and while the good times are infectious, what lingers is how the band is exceptionally tight on this night. Whether they're boogying to blues and rock & roll or stretching to the edge of space, everybody feels in sync and the results are exhilarating. No wonder tapers wanted to keep this one to themselves: it's the kind of show that you want to be your own personal favorite.

Tracklist:

01 - Bertha
02 - Good Lovin'
03 - Dire Wolf
04 - El Paso
05 - It Must Have Been The Roses
06 - New Minglewood Blues
07 - Ramble On Rose
08 - Promised Land
09 - Deal
10 - Samson And Delilah
11 - Ship Of Fools
12 - Estimated Prophet
13 - The Other One
14 - Eyes Of The World
15 - Rhythm Devils
16 - Space
17 - Wharf Rat
18 - Franklin's Tower
19 - Sugar Magnolia
20 - Terrapin Station
21 - One More Saturday Night
22 - Werewolves Of London

Analyzed: Grateful Dead / Red Rocks Amphitheatre, Morrison, CO 7/8/78
––––––––––––––––––––––––––––––––––––––––

DR Peak RMS Duration Track
––––––––––––––––––––––––––––––––––––––––
DR13 -0.20 dB -17.06 dB 6:43 01-Bertha
DR12 -0.20 dB -15.72 dB 6:40 02-Good Lovin'
DR13 -0.20 dB -16.80 dB 4:07 03-Dire Wolf
DR15 -0.20 dB -20.09 dB 4:25 04-El Paso
DR14 -0.20 dB -19.90 dB 7:16 05-It Must Have Been The Roses
DR13 -0.20 dB -15.57 dB 6:09 06-New Minglewood Blues
DR14 -0.20 dB -18.45 dB 8:34 07-Ramble On Rose
DR13 -0.20 dB -15.93 dB 4:37 08-Promised Land
DR12 -0.20 dB -16.48 dB 6:29 09-Deal
DR14 -0.20 dB -16.98 dB 7:44 10-Samson And Delilah
DR13 -0.20 dB -18.11 dB 7:29 11-Ship Of Fools
DR13 -0.20 dB -18.22 dB 13:08 12-Estimated Prophet
DR13 -0.36 dB -16.46 dB 8:51 13-The Other One
DR14 -0.20 dB -17.89 dB 10:34 14-Eyes Of The World
DR18 -2.18 dB -24.35 dB 10:29 15-Rhythm Devils
DR11 -0.57 dB -16.51 dB 5:03 16-Space
DR13 -0.20 dB -17.84 dB 8:43 17-Wharf Rat
DR13 -0.20 dB -17.25 dB 10:39 18-Franklin's Tower
DR10 -0.20 dB -14.14 dB 9:31 19-Sugar Magnolia
DR12 -0.20 dB -16.89 dB 10:54 20-Terrapin Station
DR10 -0.20 dB -14.36 dB 5:13 21-One More Saturday Night
DR10 -0.20 dB -13.46 dB 6:44 22-Werewolves Of London
––––––––––––––––––––––––––––––––––––––––

Number of tracks: 22
Official DR value: DR13

Samplerate: 192000 Hz
Channels: 2
Bits per sample: 24
Bitrate: 4639 kbps
Codec: FLAC
================================================================================


Thanks to the Original customer!

Grateful Dead - 30 Trips Around The Sun (2015)
Grateful Dead - Complete Studio Albums: 1967-1989 (2013)
Grateful Dead - The Best Of Grateful Dead (2015)

.